Всегда рабочее зеркало без VPN и Proxy просто перед .vidak.icu напиши любое слово или цифру, Пример http://hk6j.vidak.icu

MVO

2 сезон

1 сезон

1

1 сезон

iTunes

2 сезон

13

1 сезон

Deluxe

pack

Рекомендуем

Пиратка

30

ВАЖНО

RePack

MK11

RePack

jed

RePack

fifa19

RePack

RDR2

RePack

NEED FOR SPEED™ PAYBACK

Кинопоиск HD

6 сезон

 Острые козырьки 6 сезон

Все сериалы

все сериалы на PB.wtf

RePack

FAR CRY 5

Anonymous, нам критически не хватает 5601 руб. на оплату серверов и переферии за Апрель, помоги нам пожалуйста, вся надежда только на тебя. В благодарность мы отключим тебе всю рекламу на сайте!

×
  
Magnet ссылка

10 дней с Сантой / 10 giorni con Babbo Natale (Алессандро Дженовези) [2020, Комедия, семейный, WEB-DLRip-AVC] MVO [Кинопоиск HD] pb.wtf

10 дней с Сантой через торрент pb.wtf

Размер: 1.45 GB | Добавлен: 4 мес. 24 д. назад | Торрент скачан:72 раза
Смотреть онлайн 10 дней с Сантой | Скачать    Ребята, помогите собрать деньги на оплату серверов!!!

03-01-2022 10:20 10 дней с Сантой Скачать торрент  

10 дней с Сантой
10 giorni con Babbo Natale

Год выпуска: 2020
Страна: Италия
Студия: Colorado Film Production
Жанр: Комедия, семейный
Продолжительность: 01:36:06
Перевод: Профессиональный (многоголосый) | Кинопоиск HD
Субтитры: отсутствуют

Режиссер: Алессандро Дженовези

rating

В ролях: Фабио Де Луиджи, Валентина Лодовини, Диего Абатантуоно, Анджелика Элли, Бьянка Усай, Маттео Кастелуччи, Беатрис Баричелла, Мелисса Бартолини, Анна Далтон, Марко Маттео Донат-Каттин

Описание: Карло, Джулия и трое их детей отправляются в Швецию на рождественские каникулы. По пути они случайно сбивают на машине странного человека, одетого как Санта-Клаус, и решают подвезти его до ближайшего города. Но у незнакомца свои планы на то, как провести это Рождество, и отделаться от него теперь не так-то просто.

Качество: WEB-DLRip-AVC
Формат: MKV

Видео: MPEG-4 AVC, 1024x426 at 25.000 fps, x264@L4.1, ~1717 kbps
Аудио: 48 kHz, AC3 Dolby Digital, 3/2 (L, C, R, l, r) + LFE ch, ~448 Kbps
скриншот  скриншот  скриншот  скриншот  скриншот  

x264 [info]: frame I:1169 Avg QP:13.47 size: 61005
x264 [info]: frame P:33905 Avg QP:16.39 size: 18660
x264 [info]: frame B:109076 Avg QP:18.19 size: 4883

General
Unique ID : 145974323954464117743095201853858202452 (0x6DD1A1D55703BAE23687E0C59B894354)
Complete name : I:10.dney.s.Santoy.2020.MVO.WEB-DLRip.x264.mkv
Format : Matroska
Format version : Version 4
File size : 1.45 GiB
Duration : 1 h 36 min
Overall bit rate : 2 166 kb/s
Encoded date : UTC 2022-01-03 09:11:19
Writing application : mkvmerge v64.0.0 ('Willows') 64-bit
Writing library : libebml v1.4.2 + libmatroska v1.6.4
Cover : Yes
Attachments : cover.jpg / cover 2.jpg

Video
ID : 1
Format : AVC
Format/Info : Advanced Video Codec
Format profile : High@L4.1
Format settings : CABAC / 11 Ref Frames
Format settings, CABAC : Yes
Format settings, Reference : 11 frames
Codec ID : V_MPEG4/ISO/AVC
Duration : 1 h 36 min
Bit rate : 1 717 kb/s
Width : 1 024 pixels
Height : 426 pixels
Display aspect ratio : 2.40:1
Frame rate mode : Constant
Frame rate : 25.000 FPS
Color space : YUV
Chroma subsampling : 4:2:0
Bit depth : 8 bits
Scan type : Progressive
Bits/(Pixel*Frame) : 0.157
Stream size : 1.15 GiB (79%)
Title : -=DoMiNo=-
Writing library : x264 core 164 r3081 19856cc
Encoding settings : cabac=1 / ref=11 / deblock=1:-2:-2 / analyse=0x3:0x133 / me=umh / subme=10 / psy=1 / psy_rd=1.00:0.15 / mixed_ref=1 / me_range=32 / chroma_me=1 / trellis=2 / 8x8dct=1 / cqm=0 / deadzone=21,11 / fast_pskip=0 / chroma_qp_offset=-3 / threads=13 / lookahead_threads=3 / sliced_threads=0 / nr=0 / decimate=0 / interlaced=0 / bluray_compat=0 / constrained_intra=0 / bframes=10 / b_pyramid=2 / b_adapt=2 / b_bias=0 / direct=3 / weightb=1 / open_gop=0 / weightp=2 / keyint=250 / keyint_min=25 / scenecut=40 / intra_refresh=0 / rc_lookahead=60 / rc=2pass / mbtree=0 / bitrate=1717 / ratetol=1.0 / qcomp=0.65 / qpmin=0 / qpmax=69 / qpstep=4 / cplxblur=20.0 / qblur=0.5 / vbv_maxrate=50000 / vbv_bufsize=62500 / nal_hrd=none / filler=0 / ip_ratio=1.40 / pb_ratio=1.30 / aq=1:0.90
Language : Italian
Default : Yes
Forced : No

Audio
ID : 2
Format : AC-3
Format/Info : Audio Coding 3
Commercial name : Dolby Digital
Codec ID : A_AC3
Duration : 1 h 36 min
Bit rate mode : Constant
Bit rate : 448 kb/s
Channel(s) : 6 channels
Channel layout : L R C LFE Ls Rs
Sampling rate : 48.0 kHz
Frame rate : 31.250 FPS (1536 SPF)
Compression mode : Lossy
Stream size : 308 MiB (21%)
Title : MVO AC3 (KinoPoisk HD)
Language : Russian
Service kind : Complete Main
Default : Yes
Forced : No

pb.wtf



Скачать 10 дней с Сантой через торрент https://i2.imageban.ru/out/2022/01/03/702ec3be8c3a18b289fcaae8e07ca194.jpg Скачать, смотреть онлайн 10 дней с Сантой бесплантно в хорошем качестве Описание: Карло, Джулия и трое их детей отправляются в Швецию на рождественские каникулы. По пути они случайно сбивают на машине странного ... 7.8 10 4
Торрент: Зарегистрирован [2022-01-03 10:20] · скачан: 72 раз
Статус: √ проверено
Размер: 1.45 GB
Как cкачать? Как скачать 10 дней с Сантой через торрент | UTorrent

% Раздел Тема Автор DL S | L
Фильмы 2019-2020 [DVDrip, WEB-DLRip, HDrip] (DUB, MVO) [ 712 MB ] 10 дней с Сантой / 10 giorni con Babbo Natale [2020 WEB-DLRip многоголосый закадровый ""] coc900 Скачать
1 | 0
Фильмы 2019-2020 [DVDrip, WEB-DLRip, HDrip] (DUB, MVO) [ 1.46 GB ] 10 дней с Сантой / 10 giorni con Babbo Natale [2020 WEB-DLRip] MVO [Кинопоиск HD] bober100 Скачать
1 | 0
Фильмы (WEB-DL 720p, 1080p) [ 4.62 GB ] 10 дней с Сантой / 10 giorni con Babbo Natale [2020 WEB-DL 1080p] MVO [Кинопоиск HD] bober100 Скачать
1 | 0

28-11-2019 20:33  

Отключить всю рекламу на сайте

    Дорогой пользователь! Огромная просьба, поблагодарите релизера, оцените раздачу и оставьте свои комментарий, если Вы скачали 10 дней с Сантой через торрент бесплатно!
    Комментировать посты могут только пользователи прошедшие не сложную регистрацию
    Показать сообщения:    

    10 дней с Сантой через торрент
    Скачать бесплатно 10 дней с Сантой
    10 дней с Сантой скачать торрент
    10 дней с Сантой смотреть онлайн
    Cкачать фильм 10 дней с Сантой бесплатно
    10 дней с Сантой скачать торрент в хорошем качестве
    10 дней с Сантой смотреть онлайн бесплатно в хорошем качестве


    Вы не можете начинать темы
    Вы не можете отвечать на сообщения
    Вы не можете редактировать свои сообщения
    Вы не можете удалять свои сообщения
    Вы не можете голосовать в опросах
    Вы не можете прикреплять файлы к сообщениям
    Вы можете скачивать файлы