Всегда рабочее зеркало без VPN и Proxy просто перед .vidak.icu напиши любое слово или цифру, Пример http://uvko.vidak.icu

MVO

2 сезон

1 сезон

1

1 сезон

iTunes

2 сезон

13

1 сезон

Распродажа

pack

Рекомендуем

Пиратка

30

ВАЖНО

RePack

MK11

RePack

jed

RePack

fifa19

RePack

RDR2

RePack

NEED FOR SPEED™ PAYBACK

Кинопоиск HD

6 сезон

 Острые козырьки 6 сезон

Все сериалы

все сериалы на PB.wtf

RePack

FAR CRY 5

Anonymous, нам критически не хватает 5601 руб. на оплату серверов и переферии за Апрель, помоги нам пожалуйста, вся надежда только на тебя. В благодарность мы отключим тебе всю рекламу на сайте!

×
  
Magnet ссылка

Сергий против нечисти / Сезон: 1 / Серии: 1-6 из 6 (Кирилл Кузин) [2022, Комедия, ужасы, фэнтези, боевик, WEBRip] pb.wtf

Сергий против нечисти через торрент pb.wtf

Раздают: 2 [ 0 KB/s ]
Размер: 1.46 GB | Добавлен: 4 мес. 7 д. назад | Торрент скачан:233 раза
Смотреть онлайн Сергий против нечисти | Скачать    Ребята, помогите собрать деньги на оплату серверов!!!

05-01-2022 01:47 Сергий против нечисти Скачать торрент  

Сергий против нечисти
Год выпуска: 2022
Страна: Россия
Студия: ООО «Паник продакшн» по заказу ООО «МТС Медиа»
Жанр: Комедия, ужасы, фэнтези, боевик
Продолжительность: ~ 00:15:00
Перевод: Не требуется
Субтитры: отсутствуют

Режиссер: Кирилл Кузин



В ролях: Роман Маякин, Лукерья Ильяшенко, Ирина Розанова, Дмитрий Куличков, Николай Шрайбер, Арсений Сергеев, Ольга Веникова, Михаил Осипов, Ирина Вилкова (II), Екатерина Фисун, Наталья Тетенова, Эрик Яралов, Евгений Потапенко, Рамиль Сабитов, Амаду Мамадаков, Алексей Сахаров (II), Сергей Стёпин, Геннадий Егоров (II), Дмитрий Первушин, Влад Волков, Сергей Фатьянов

Описание: Бывший священник Сергий, отстраненный от служения в церкви, стал охотником за нечистью. В процессе охоты он сталкивается со следователем Екатериной, которой только предстоит познакомиться с миром сверхъестественного. Сергий и Катя становятся командой и вместе начинают борьбу с фольклорными злодеями — Кощеем, Баюном и прочими.

Качество: WEBRip
Формат: AVI

Видео: XviD, 720x304, ~ 1880 Кбит/с, 0.344 bit/pixel, 25 Кадр/с
Аудио #01: AC3, 48,0 КГц, 2 ch, 192 Кбит/с | C цензурой
Аудио #02: AC3, 48,0 КГц, 2 ch, 192 Кбит/с | Без цензуры 18+
скриншот  скриншот  скриншот  скриншот  скриншот  

Общее
Полное имя : D:\Sergiy.protiv.nechisti.2021.WEB-DLRip.25Kuzmich\Sergiy.protiv.nechisti.e01.WEB-DLRip.25Kuzmich.avi
Формат : AVI
Формат/Информация : Audio Video Interleave
Размер файла : 263 Мбайт
Продолжительность : 16 м. 7 с.
Общий поток : 2 281 Кбит/сек
Программа кодирования : VirtualDubMod 1.5.10.3 (build 2550/release)
Библиотека кодирования : VirtualDubMod build 2550/release

Видео
Идентификатор : 0
Формат : MPEG-4 Visual
Профиль формата : Advanced Simple@L5
Настройки формата : BVOP1
Параметр BVOP формата : 1
Параметр QPel формата : Нет
Параметр GMC формата : Без точки перехода
Параметр матрицы формата : Default (MPEG)
Идентификатор кодека : XVID
Идентификатор кодека/Подсказка : XviD
Продолжительность : 16 м. 7 с.
Битрейт : 1 882 Кбит/сек
Ширина : 720 пикселей
Высота : 304 пикселя
Соотношение сторон : 2,35:1
Частота кадров : 25,000 кадров/сек
Цветовое пространство : YUV
Субдискретизация насыщенности : 4:2:0
Битовая глубина : 8 бит
Тип развёртки : Прогрессивная
Метод сжатия : С потерями
Бит/(Пиксели*Кадры) : 0.344
Размер потока : 217 Мбайт (83%)
Библиотека кодирования : XviD 73

Аудио #1
Идентификатор : 1
Формат : AC-3
Формат/Информация : Audio Coding 3
Коммерческое название : Dolby Digital
Идентификатор кодека : 2000
Продолжительность : 16 м. 7 с.
Вид битрейта : Постоянный
Битрейт : 192 Кбит/сек
Каналы : 2 канала
Channel layout : L R
Частота : 48,0 КГц
Частота кадров : 31,250 кадров/сек (1536 SPF)
Метод сжатия : С потерями
Размер потока : 22,1 Мбайт (8%)
Выравнивание : Разделение по промежуткам
Продолжительность промежутка : 40 мс. (1,00 видеокадр)
Время предзагрузки промежутка : 500 мс.
Service kind : Complete Main

Аудио #2
Идентификатор : 2
Формат : AC-3
Формат/Информация : Audio Coding 3
Коммерческое название : Dolby Digital
Идентификатор кодека : 2000
Продолжительность : 16 м. 7 с.
Вид битрейта : Постоянный
Битрейт : 192 Кбит/сек
Каналы : 2 канала
Channel layout : L R
Частота : 48,0 КГц
Частота кадров : 31,250 кадров/сек (1536 SPF)
Метод сжатия : С потерями
Размер потока : 22,1 Мбайт (8%)
Выравнивание : Разделение по промежуткам
Продолжительность промежутка : 40 мс. (1,00 видеокадр)
Время предзагрузки промежутка : 500 мс.
Service kind : Complete Main

Раздача ведётся путём добавления новых серий, при каждом добавлении создаётся новый торрент. Чтобы начать докачку новой серии, пользователям необходимо сделать следующее:
- Остановить скачивание.
- Удалить старый торрент у себя из клиента (старые серии удалять не надо).
- Скачать новый торрент и запустить его у себя в клиенте вместо старого, при этом указать клиенту путь в старую папку куда и должно происходить скачивание новых серий.
Ваш клиент при этом должен произвести хеширование (проверку) старой папки (если не производит сам - помогите ему сделать это), и будет докачивать только те серии которых у вас ещё нет. Старые серии при этом не удаляются, а продолжают раздаваться!
pb.wtf



Скачать Сергий против нечисти через торрент https://c.radikal.ru/c21/2201/bd/bdb7494a2553.jpg Скачать, смотреть онлайн Сергий против нечисти бесплантно в хорошем качестве Описание: Бывший священник Сергий, отстраненный от служения в церкви, стал охотником за нечистью. В процессе охоты он сталкивается со ... 8.7 10 15
Торрент: Зарегистрирован [2022-01-13 22:54] · скачан: 233 раз
Статус: √ проверено
Размер: 1.46 GB
Как cкачать? Как скачать Сергий против нечисти через торрент | UTorrent

% Раздел Тема Автор DL S | L
Наши сериалы [ 4.07 GB ] Сергий против нечисти / Сезон: 1 / Серии: 1-6 из 6 [2022 WEBRip 1080p] bober100 Скачать
4 | 0
Наши сериалы [ 1.29 GB ] Сергий против нечисти / Сезон: 1 / Серии: 1-6 из 6 [2022 WEBRip-AVC] bober100 Скачать
3 | 0

28-11-2019 20:33  

Отключить всю рекламу на сайте

    Дорогой пользователь! Огромная просьба, поблагодарите релизера, оцените раздачу и оставьте свои комментарий, если Вы скачали Сергий против нечисти через торрент бесплатно!
    Комментировать посты могут только пользователи прошедшие не сложную регистрацию
    Показать сообщения:    

    Сергий против нечисти через торрент
    Скачать бесплатно Сергий против нечисти
    Сергий против нечисти скачать торрент
    Сергий против нечисти смотреть онлайн
    Cкачать фильм Сергий против нечисти бесплатно
    Сергий против нечисти скачать торрент в хорошем качестве
    Сергий против нечисти смотреть онлайн бесплатно в хорошем качестве


    Вы не можете начинать темы
    Вы не можете отвечать на сообщения
    Вы не можете редактировать свои сообщения
    Вы не можете удалять свои сообщения
    Вы не можете голосовать в опросах
    Вы не можете прикреплять файлы к сообщениям
    Вы можете скачивать файлы