Всегда рабочее зеркало без VPN и Proxy просто перед .vidak.icu напиши любое слово или цифру, Пример http://ar5j.vidak.icu

MVO

Лицензия

1 сезон

1

1 сезон

iTunes

1 сезон

13

1 сезон

Deluxe

pack

Рекомендуем

Пиратка

30

ВАЖНО

RePack

MK11

RePack

jed

RePack

fifa19

RePack

RDR2

RePack

NEED FOR SPEED™ PAYBACK

Кинопоиск HD

6 сезон

 Острые козырьки 6 сезон

Все сериалы

все сериалы на PB.wtf

RePack

FAR CRY 5
  
Magnet ссылка

Вмешательство (Ксения Зуева) [2021, Драма, мелодрама, WEBRip-AVC] pb.wtf

Вмешательство через торрент pb.wtf

Раздают: 2 [ 0 KB/s ]
Размер: 2.19 GB | Добавлен: 5 мес. 28 д. назад | Торрент скачан:36 раз
Смотреть онлайн Вмешательство | Скачать    Ребята, помогите собрать деньги на оплату серверов!!!

06-01-2022 07:37 Вмешательство Скачать торрент  

Вмешательство
Год выпуска: 2021
Страна: Россия
Студия: Кинокомпания АТЛАНТ
Жанр: Драма, мелодрама
Продолжительность: 02:05:40
Перевод: Не требуется
Субтитры: отсутствуют

Режиссер: Ксения Зуева

rating

В ролях: Аня Чиповская, Андрис Кейшс, Павел Попов, Ксения Раппопорт, Мария Фомина, Михаил Негин, Наталья Павленкова, Иван И. Твердовский, Юлия Хамитова, Вилен Бабичев

Описание: Маша — молодая девушка с окраины, из крайне неблагополучной семьи. Она существует в своей реальности, где заботится о бабушке и младшем брате, мечтает о семье со своим молодым человеком, мучительно нуждается в тепле, любви и заботе. Она живет и ничего не знает о своем тяжелом заболевании. Ее жизнь круто меняется после встречи с Матвеем Сергеевичем, кардиохирургом, спасшим ей жизнь.

Качество: WEBRip-AVC
Формат: MKV

Видео: MPEG-4 AVC, 1024x552 at 25.000 fps, x264@L4.1, ~2295 kbps
Аудио: 48.0 kHz, AAC, 2/0 (L,R) ch, ~ 192 kbps
скриншот  скриншот  скриншот  скриншот  скриншот  

x264 [info]: frame I:872 Avg QP:14.39 size: 56419
x264 [info]: frame P:43446 Avg QP:16.18 size: 23580
x264 [info]: frame B:144172 Avg QP:18.19 size: 7557

General
Unique ID : 192577628303881298185535916405005308340 (0x90E11A23069DCFEDC16C6B574C2951B4)
Complete name : E:Vmeshatelstvo.2020.WEBRip-AVC.mkv
Format : Matroska
Format version : Version 4
File size : 2.19 GiB
Duration : 2 h 5 min
Overall bit rate : 2 490 kb/s
Encoded date : UTC 2021-11-04 12:48:49
Writing application : mkvmerge v62.0.0 ('Apollo') 64-bit
Writing library : libebml v1.4.2 + libmatroska v1.6.4
Cover : Yes
Attachments : cover.jpg / cover 2.jpg

Video
ID : 1
Format : AVC
Format/Info : Advanced Video Codec
Format profile : High@L4.1
Format settings : CABAC / 10 Ref Frames
Format settings, CABAC : Yes
Format settings, Reference : 10 frames
Codec ID : V_MPEG4/ISO/AVC
Duration : 2 h 5 min
Bit rate : 2 295 kb/s
Width : 1 024 pixels
Height : 552 pixels
Display aspect ratio : 1.85:1
Frame rate mode : Constant
Frame rate : 25.000 FPS
Color space : YUV
Chroma subsampling : 4:2:0
Bit depth : 8 bits
Scan type : Progressive
Bits/(Pixel*Frame) : 0.162
Stream size : 2.01 GiB (92%)
Title : -=DoMiNo=-
Writing library : x264 core 164 r3075+55M 97d28bb t_mod_New [(8 & 10)-bit@all X86_64]
Encoding settings : cabac=1 / ref=10 / deblock=1:-3:-2 / analyse=0x3:0x133 / me=umh / subme=10 / psy=1 / fade_compensate=0.00 / psy_rd=1.00:0.20 / mixed_ref=1 / me_range=32 / chroma_me=1 / trellis=2 / 8x8dct=1 / cqm=0 / deadzone=21,11 / fast_pskip=0 / chroma_qp_offset=-3 / threads=24 / lookahead_threads=4 / sliced_threads=0 / nr=0 / decimate=0 / interlaced=0 / bluray_compat=0 / constrained_intra=0 / fgo=0 / bframes=10 / b_pyramid=2 / b_adapt=2 / b_bias=0 / direct=3 / weightb=1 / open_gop=0 / weightp=2 / keyint=250 / keyint_min=25 / scenecut=40 / intra_refresh=0 / rc_lookahead=60 / rc=2pass / mbtree=0 / bitrate=2295 / ratetol=1.0 / qcomp=0.60 / qpmin=0:0:0 / qpmax=69:69:69 / qpstep=4 / cplxblur=20.0 / qblur=0.5 / vbv_maxrate=50000 / vbv_bufsize=62500 / nal_hrd=none / filler=0 / ip_ratio=1.40 / pb_ratio=1.30 / aq=2:0.90 / aq-sensitivity=10.00 / aq-factor=1.00:1.00:1.00 / aq2=0 / aq3=0
Language : Russian
Default : Yes
Forced : No

Audio
ID : 2
Format : AAC LC
Format/Info : Advanced Audio Codec Low Complexity
Codec ID : A_AAC-2
Duration : 2 h 5 min
Bit rate : 192 kb/s
Channel(s) : 2 channels
Channel layout : L R
Sampling rate : 44.1 kHz
Frame rate : 43.066 FPS (1024 SPF)
Compression mode : Lossy
Stream size : 173 MiB (8%)
Language : Russian
Default : Yes
Forced : No

pb.wtf



Скачать Вмешательство через торрент https://i116.fastpic.org/big/2021/1104/86/e878b36a64eb3c58539b0b85b2ebcd86.jpg Скачать, смотреть онлайн Вмешательство бесплантно в хорошем качестве Описание: Маша — молодая девушка с окраины, из крайне неблагополучной семьи. Она существует в своей реальности, где заботится о бабушке и ... 10 10 6
Торрент: Зарегистрирован [2022-01-06 07:37] · скачан: 36 раз
Статус: T временная
Размер: 2.19 GB
Как cкачать? Как скачать Вмешательство через торрент | UTorrent

% Раздел Тема Автор DL S | L
T Наши новые фильмы 2020 - 2022 [ 1.46 GB ] Вмешательство [2021 WEBRip] bober100 Скачать
1 | 0
Порно фильмы HD [ 9.29 GB ] Анальное Вмешательство / Anal Intervention [2015 All Sex Anal HDTV 1080p Оригинальный] Pir@tya2010 Скачать
1 | 0
Гонзо [ 1.12 GB ] Анальное Вмешательство / Anal Intervention [2015 All Sex Oral Gonzo BigTits Porn Stars Anal WEB-DLRip 480p] Split Scenes sheker187 Скачать
1 | 0
Фильмы 2001-2005 [ 1.33 GB ] Чужое вмешательство / Alien Abduction [2005 DVDRip] vadfro Скачать
1 | 0
Порно фильмы HD [ 22.88 GB ] [1080p] This Ain't Intervention XXX / Это НЕ Вмешательство [2010 Feature Parody Straight 1080p Blu-Ray] Joup Скачать
1 | 0

28-11-2019 20:33  

Отключить всю рекламу на сайте

    Дорогой пользователь! Огромная просьба, поблагодарите релизера, оцените раздачу и оставьте свои комментарий, если Вы скачали Вмешательство через торрент бесплатно!
    Комментировать посты могут только пользователи прошедшие не сложную регистрацию
    Показать сообщения:    

    Вмешательство через торрент
    Скачать бесплатно Вмешательство
    Вмешательство скачать торрент
    Вмешательство смотреть онлайн
    Cкачать фильм Вмешательство бесплатно
    Вмешательство скачать торрент в хорошем качестве
    Вмешательство смотреть онлайн бесплатно в хорошем качестве


    Вы не можете начинать темы
    Вы не можете отвечать на сообщения
    Вы не можете редактировать свои сообщения
    Вы не можете удалять свои сообщения
    Вы не можете голосовать в опросах
    Вы не можете прикреплять файлы к сообщениям
    Вы можете скачивать файлы