Всегда рабочее зеркало без VPN и Proxy просто перед .vidak.icu напиши любое слово или цифру, Пример http://c61l.vidak.icu

MVO

Лицензия

1 сезон

1

1 сезон

iTunes

1 сезон

13

1 сезон

Deluxe

pack

Рекомендуем

Repack

30

ВАЖНО

RePack

MK11

RePack

jed

RePack

fifa19

RePack

RDR2

RePack

NEED FOR SPEED™ PAYBACK

Кинопоиск HD

6 сезон

 Острые козырьки 6 сезон

Все сериалы

все сериалы на PB.wtf

RePack

FAR CRY 5
  
Magnet ссылка

Последняя дуэль / The Last Duel (Ридли Скотт) [2021, История, драма, HDRip-AVC] DUB [Невафильм] от ExKinoRay pb.wtf

Последняя дуэль через торрент pb.wtf

Раздают: 2 [ 0 KB/s ]
Размер: 2.82 GB | Добавлен: 5 мес. 27 д. назад | Торрент скачан:144 раза
Смотреть онлайн Последняя дуэль | Скачать    Ребята, помогите собрать деньги на оплату серверов!!!

07-01-2022 18:13 Последняя дуэль Скачать торрент  


Последняя дуэль / The Last Duel
Информация о фильме:
Название: Последняя дуэль
Оригинальное название: The Last Duel
Год выхода: 2021
Жанр: История, драма
Режиссер: Ридли Скотт
В ролях: Мэтт Дэймон, Адам Драйвер, Джоди Комер, Харриет Уолтер, Бен Аффлек, Алекс Лоутер, Мартон Чокаш, Уильям Хьюстон, Оливер Коттон, Орелиен Лорнье

Описание: Сюжет фильма Ридли Скотта основан на реальной истории последней законной дуэли, которая состоялась во Франции в XIV веке. Вернувшись с войны, нормандский рыцарь Жан де Карруж узнает о том, что его друг Жак Ле Гри изнасиловал его супругу Маргариту. Желая защитить фамильную честь и отомстить насильнику, Карруж обращается напрямую к французскому королю Карлу VI, который решает, что конфликт будет исчерпан в честном поединке. Если ее муж проиграет, Маргарита будет сожжена на костре за ложные обвинения.



Страна: США, Великобритания
Студия: 20th Century Studios, Pearl Street Films, Scott Free Productions, TSG Entertainment
Продолжительность: 02:32:43
Перевод: Дублированный - Невафильм



Информация о файле:
Кодек: AVC
Формат: MKV
Качество: HDRip-AVC
Видео: MPEG-4 AVC, 1024x428, 23.976 fps, 1750 kbps
Аудио RU: AC3, 6 ch, 48 kHz, 448 kbps
Аудио EN: AC3, 6 ch, 48 kHz, 448 kbps
Субтитры: Русские (Forced, full), английские

x264 info: frame I:1725 Avg QP:13.12 size: 72466
x264 info: frame P:52102 Avg QP:16.91 size: 19016
x264 info: frame B:165869 Avg QP:18.01 size: 5345
x264 info: consecutive B-frames: 5.7% 2.9% 7.4% 13.7% 14.0% 39.3% 6.6% 3.9% 2.1% 2.2% 2.1%
General
Unique ID : 83620932824210388456595394999303643124 (0x3EE8CE4C35C9ED7694742AB251299FF4)
Complete name : D:\uTorrent\Рипы wolf1245\The Last Duel.2021.DUB.NFilm.HDRip-AVC.[wolf1245.ExKinoRay].mkv
Format : Matroska
Format version : Version 4
File size : 2.82 GiB
Duration : 2 h 32 min
Overall bit rate : 2 643 kb/s
Movie name : The Last Duel.2021.DUB.NFilm.HDRip-AVC.[wolf1245.ExKinoRay]
Encoded date : UTC 2022-01-07 17:59:31
Writing application : mkvmerge v64.0.0 ('Willows') 64-bit
Writing library : libebml v1.4.2 + libmatroska v1.6.4

Video
ID : 1
Format : AVC
Format/Info : Advanced Video Codec
Format profile : [email protected]
Format settings : CABAC / 12 Ref Frames
Format settings, CABAC : Yes
Format settings, Reference frames : 12 frames
Codec ID : V_MPEG4/ISO/AVC
Duration : 2 h 32 min
Bit rate : 1 750 kb/s
Width : 1 024 pixels
Height : 428 pixels
Display aspect ratio : 2.40:1
Frame rate mode : Constant
Frame rate : 23.976 (24000/1001) FPS
Color space : YUV
Chroma subsampling : 4:2:0
Bit depth : 8 bits
Scan type : Progressive
Bits/(Pixel*Frame) : 0.167
Stream size : 1.86 GiB (66%)
Title : -=[wolf1245.ExKinoRay]=-
Writing library : x264 core 163 r3060 5db6aa6
Encoding settings : cabac=1 / ref=12 / deblock=1:-3:-3 / analyse=0x3:0x133 / me=umh / subme=10 / psy=1 / psy_rd=1.00:0.15 / mixed_ref=1 / me_range=48 / chroma_me=1 / trellis=2 / 8x8dct=1 / cqm=0 / deadzone=21,11 / fast_pskip=1 / chroma_qp_offset=-3 / threads=10 / lookahead_threads=2 / sliced_threads=0 / nr=0 / decimate=0 / interlaced=0 / bluray_compat=0 / constrained_intra=0 / bframes=10 / b_pyramid=2 / b_adapt=2 / b_bias=0 / direct=3 / weightb=1 / open_gop=0 / weightp=2 / keyint=240 / keyint_min=24 / scenecut=40 / intra_refresh=0 / rc_lookahead=60 / rc=2pass / mbtree=0 / bitrate=1750 / ratetol=1.0 / qcomp=0.60 / qpmin=0 / qpmax=69 / qpstep=4 / cplxblur=20.0 / qblur=0.5 / vbv_maxrate=50000 / vbv_bufsize=62500 / nal_hrd=none / filler=0 / ip_ratio=1.40 / pb_ratio=1.30 / aq=1:1.00
Language : English
Default : Yes
Forced : No

Audio #1
ID : 2
Format : AC-3
Format/Info : Audio Coding 3
Commercial name : Dolby Digital
Codec ID : A_AC3
Duration : 2 h 32 min
Bit rate mode : Constant
Bit rate : 448 kb/s
Channel(s) : 6 channels
Channel layout : L R C LFE Ls Rs
Sampling rate : 48.0 kHz
Frame rate : 31.250 FPS (1536 SPF)
Compression mode : Lossy
Stream size : 490 MiB (17%)
Title : Dub [Nevafilm]
Language : Russian
Service kind : Complete Main
Default : Yes
Forced : Yes

Audio #2
ID : 3
Format : AC-3
Format/Info : Audio Coding 3
Commercial name : Dolby Digital
Codec ID : A_AC3
Duration : 2 h 32 min
Bit rate mode : Constant
Bit rate : 448 kb/s
Channel(s) : 6 channels
Channel layout : L R C LFE Ls Rs
Sampling rate : 48.0 kHz
Frame rate : 31.250 FPS (1536 SPF)
Compression mode : Lossy
Stream size : 489 MiB (17%)
Title : Original
Language : English
Service kind : Complete Main
Default : Yes
Forced : No

Text #1
ID : 4
Format : UTF-8
Codec ID : S_TEXT/UTF8
Codec ID/Info : UTF-8 Plain Text
Duration : 2 h 22 min
Bit rate : 1 b/s
Count of elements : 35
Stream size : 1.62 KiB (0%)
Title : Forced
Language : Russian
Default : No
Forced : No

Text #2
ID : 5
Format : UTF-8
Codec ID : S_TEXT/UTF8
Codec ID/Info : UTF-8 Plain Text
Duration : 2 h 22 min
Bit rate : 79 b/s
Count of elements : 1652
Stream size : 83.1 KiB (0%)
Title : Full
Language : Russian
Default : No
Forced : No

Text #3
ID : 6
Format : UTF-8
Codec ID : S_TEXT/UTF8
Codec ID/Info : UTF-8 Plain Text
Duration : 23 s 273 ms
Bit rate : 49 b/s
Count of elements : 6
Stream size : 143 Bytes (0%)
Title : Forced
Language : English
Default : No
Forced : No

Text #4
ID : 7
Format : UTF-8
Codec ID : S_TEXT/UTF8
Codec ID/Info : UTF-8 Plain Text
Duration : 2 h 22 min
Bit rate : 47 b/s
Count of elements : 1714
Stream size : 49.6 KiB (0%)
Title : Full
Language : English
Default : No
Forced : No

Text #5
ID : 8
Format : UTF-8
Codec ID : S_TEXT/UTF8
Codec ID/Info : UTF-8 Plain Text
Duration : 2 h 28 min
Bit rate : 56 b/s
Count of elements : 2168
Stream size : 61.1 KiB (0%)
Title : SDH
Language : English
Default : No
Forced : No

Menu
00:00:00.000 : :Chapter 1
00:05:02.052 : :Chapter 2
00:09:42.457 : :Chapter 3
00:17:43.646 : :Chapter 4
00:25:59.933 : :Chapter 5
00:33:25.295 : :Chapter 6
00:38:51.371 : :Chapter 7
00:42:34.594 : :Chapter 8
00:54:23.510 : :Chapter 9
01:05:52.490 : :Chapter 10
01:17:07.456 : :Chapter 11
01:25:24.703 : :Chapter 12
01:32:50.273 : :Chapter 13
01:40:17.178 : :Chapter 14
01:52:06.720 : :Chapter 15
02:05:28.521 : :Chapter 16
02:22:25.537 : :Chapter 17
Релиз от:

Автор релиза:
pb.wtf



Скачать Последняя дуэль через торрент https://i116.fastpic.org/big/2022/0107/a5/3404b78d5e49c7f1a88c274385d923a5.jpg Скачать, смотреть онлайн Последняя дуэль бесплантно в хорошем качестве Описание: Сюжет фильма Ридли Скотта основан на реальной истории последней законной дуэли, которая состоялась во Франции в XIV веке. ... 9.7 10 9
Info! Золотая раздача, скачанное не засчитывается.
Торрент: Зарегистрирован [2022-01-07 18:13] · скачан: 144 раз
Статус: √ проверено
Размер: 2.82 GB
Как cкачать? Как скачать Последняя дуэль через торрент | UTorrent

28-11-2019 20:33  

Отключить всю рекламу на сайте

    Дорогой пользователь! Огромная просьба, поблагодарите релизера, оцените раздачу и оставьте свои комментарий, если Вы скачали Последняя дуэль через торрент бесплатно!
    Комментировать посты могут только пользователи прошедшие не сложную регистрацию
    Показать сообщения:    

    Последняя дуэль через торрент
    Скачать бесплатно Последняя дуэль
    Последняя дуэль скачать торрент
    Последняя дуэль смотреть онлайн
    Cкачать фильм Последняя дуэль бесплатно
    Последняя дуэль скачать торрент в хорошем качестве
    Последняя дуэль смотреть онлайн бесплатно в хорошем качестве


    Вы не можете начинать темы
    Вы не можете отвечать на сообщения
    Вы не можете редактировать свои сообщения
    Вы не можете удалять свои сообщения
    Вы не можете голосовать в опросах
    Вы не можете прикреплять файлы к сообщениям
    Вы можете скачивать файлы