Всегда рабочее зеркало без VPN и Proxy просто перед .vidak.icu напиши любое слово или цифру, Пример http://2tyc.vidak.icu

MVO

Лицензия

1 сезон

1

1 сезон

iTunes

1 сезон

13

1 сезон

Deluxe

pack

Рекомендуем

Пиратка

30

ВАЖНО

RePack

MK11

RePack

jed

RePack

fifa19

RePack

RDR2

RePack

NEED FOR SPEED™ PAYBACK

Кинопоиск HD

6 сезон

 Острые козырьки 6 сезон

Все сериалы

все сериалы на PB.wtf

RePack

FAR CRY 5

Anonymous, нам критически не хватает 2100 руб. на оплату серверов и переферии за МАЙ, помоги нам пожалуйста, вся надежда только на тебя. В благодарность мы отключим тебе всю рекламу на сайте!

×
  
Magnet ссылка

Пираты Карибского моря: Сундук мертвеца / Pirates of the Caribbean: Dead Man's Chest (Гор Вербински) [2006, Фэнтези, боевик, приключения, UHD BDRemux 2160p] DUB [Лицензия] pb.wtf

Пираты Карибского моря: Сундук мертвеца через торрент pb.wtf

Раздают: 1 [ 0 KB/s ]
Размер: 50.47 GB | Добавлен: 5 мес. 17 д. назад | Торрент скачан:48 раз
Смотреть онлайн Пираты Карибского моря: Сундук мертвеца | Скачать    Ребята, помогите собрать деньги на оплату серверов!!!

12-01-2022 07:44 Пираты Карибского моря: Сундук мертвеца Скачать торрент  

Пираты Карибского моря: Сундук мертвеца
Pirates of the Caribbean: Dead Man's Chest

Год выпуска: 2006
Страна: США
Студия: Jerry Bruckheimer Films, Second Mate Productions, Walt Disney Pictures
Жанр: Фэнтези, боевик, приключения
Продолжительность: 02:30:39
Перевод: Дублированный | Лицензия
Субтитры: Русские (Full), английские

Режиссер: Гор Вербински

rating

В ролях: Джонни Депп, Орландо Блум, Кира Найтли, Джек Девенпорт, Билл Найи, Стеллан Скарсгард, Кевин МакНэлли, Ли Аренберг, Макензи Крук, Том Холландер

Описание: Вновь оказавшись в ирреальном мире, лихой капитан Джек Воробей неожиданно узнает, что является должником легендарного капитана «Летучего Голландца» Дэйви Джонса. Джек должен в кратчайшие сроки решить эту проблему, иначе ему грозит вечное проклятие и рабское существование после смерти. Вдобавок ко всему, срывается свадьба Уилла Тернера и Элизабет Суонн, которые вынуждены составить Джеку компанию в его злоключениях…

Качество: UHD BDRemux 2160p
Формат: MKV

Видео: 3840x2160 at 23.976 fps, MPEG-H HEVC HDR Video, ~ 42400 kbps avg
Аудио #01: 48 kHz, AC3, 5.1, 640 Kbps | Дублированный | RUS |
Аудио #02: 48 kHz, TrueHD, 7.1, 4178 Kbps | Оригинал | ENG |
Аудио #03: 48 kHz, AC3, 5.1, 640 Kbps | Оригинал | ENG |
скриншот  скриншот  скриншот  скриншот  скриншот  

General
Unique ID : 170198961623615278286458345948623760668 (0x800B20AEF1FF55E71D56BA979E6D6D1C)
Complete name : C:VideoPirates.of.the.Caribbean.Dead.Mans.Chest.2006.BDREMUX.2160p.HDR.seleZen.mkv
Format : Matroska
Format version : Version 4
File size : 50.5 GiB
Duration : 2 h 30 min
Overall bit rate mode : Variable
Overall bit rate : 48.0 Mb/s
Movie name : Pirates of the Caribbean: Dead Man's Chest 2006 from seleZen
Encoded date : UTC 2022-01-12 06:22:26
Writing application : mkvmerge v59.0.0 ('Shining Star') 64-bit
Writing library : libebml v1.4.2 + libmatroska v1.6.4

Video
ID : 1
Format : HEVC
Format/Info : High Efficiency Video Coding
Format profile : Main 10@L5.1@High
HDR format : SMPTE ST 2086, HDR10 compatible
Codec ID : V_MPEGH/ISO/HEVC
Duration : 2 h 30 min
Bit rate : 42.4 Mb/s
Width : 3 840 pixels
Height : 2 160 pixels
Display aspect ratio : 16:9
Frame rate mode : Constant
Frame rate : 23.976 (24000/1001) FPS
Color space : YUV
Chroma subsampling : 4:2:0 (Type 2)
Bit depth : 10 bits
Bits/(Pixel*Frame) : 0.213
Stream size : 44.7 GiB (88%)
Language : English
Default : Yes
Forced : No
Color range : Limited
Color primaries : BT.2020
Transfer characteristics : PQ
Matrix coefficients : BT.2020 non-constant
Mastering display color pri : Display P3
Mastering display luminance : min: 0.0050 cd/m2, max: 4000 cd/m2

Audio #1
ID : 2
Format : AC-3
Format/Info : Audio Coding 3
Commercial name : Dolby Digital
Codec ID : A_AC3
Duration : 2 h 30 min
Bit rate mode : Constant
Bit rate : 640 kb/s
Channel(s) : 6 channels
Channel layout : L R C LFE Ls Rs
Sampling rate : 48.0 kHz
Frame rate : 31.250 FPS (1536 SPF)
Compression mode : Lossy
Stream size : 690 MiB (1%)
Title : Dub
Language : Russian
Service kind : Complete Main
Default : Yes
Forced : Yes

Audio #2
ID : 3
Format : MLP FBA 16-ch
Format/Info : Meridian Lossless Packing FBA with 16-channel presentation
Commercial name : Dolby TrueHD with Dolby Atmos
Codec ID : A_TRUEHD
Duration : 2 h 30 min
Bit rate mode : Variable
Bit rate : 4 178 kb/s
Maximum bit rate : 6 009 kb/s
Channel(s) : 8 channels
Channel layout : L R C LFE Ls Rs Lb Rb
Sampling rate : 48.0 kHz
Frame rate : 1 200.000 FPS (40 SPF)
Compression mode : Lossless
Stream size : 4.40 GiB (9%)
Title : Original
Language : English
Default : No
Forced : No
Number of dynamic objects : 13
Bed channel count : 1 channel
Bed channel configuration : LFE

Audio #3
ID : 4
Format : AC-3
Format/Info : Audio Coding 3
Commercial name : Dolby Digital
Codec ID : A_AC3
Duration : 2 h 30 min
Bit rate mode : Constant
Bit rate : 640 kb/s
Channel(s) : 6 channels
Channel layout : L R C LFE Ls Rs
Sampling rate : 48.0 kHz
Frame rate : 31.250 FPS (1536 SPF)
Compression mode : Lossy
Stream size : 690 MiB (1%)
Language : English
Service kind : Complete Main
Default : No
Forced : No

Text #1
ID : 5
Format : UTF-8
Codec ID : S_TEXT/UTF8
Codec ID/Info : UTF-8 Plain Text
Duration : 2 h 20 min
Bit rate : 56 b/s
Count of elements : 1140
Stream size : 58.2 KiB (0%)
Language : Russian
Default : No
Forced : No

Text #2
ID : 6
Format : UTF-8
Codec ID : S_TEXT/UTF8
Codec ID/Info : UTF-8 Plain Text
Duration : 2 h 18 min
Bit rate : 41 b/s
Count of elements : 1259
Stream size : 42.0 KiB (0%)
Language : English
Default : No
Forced : No

Menu
00:00:00.000 : Introduction
00:04:18.925 : "and a Bottle of Rum"
00:09:53.009 : "Left Our Marks"
00:12:13.441 : "Time Is Running Out"
00:19:09.065 : "I Have Faith in You"
00:23:53.474 : "Save Me"
00:30:15.480 : Salvaging the Ship
00:35:29.419 : "About Six Will Do"
00:40:32.930 : "This Way, Lads"
00:46:28.035 : The Ship Is Haunted
00:50:25.564 : Touch of Destiny
00:56:18.625 : The Flying Dutchman
00:59:52.380 : Davy Jones
01:05:45.191 : Tortuga
01:11:55.853 : Mr. Turner
01:17:04.328 : "Hide the Rum"
01:22:10.259 : Game of Deception
01:30:36.640 : Persuade Me
01:34:38.172 : The Kraken
01:39:21.831 : "Very Much Alike"
01:44:52.411 : "Can't Let You Do That"
01:49:14.715 : Fight for the Key
01:54:55.806 : Beating Heart
01:59:36.044 : "I Got a Jar of Dirt"
02:04:59.909 : Load the Rum
02:10:27.194 : Abandon Ship
02:16:20.631 : "Something to Trade"
02:21:04.873 : Credits

pb.wtf



Скачать Пираты Карибского моря: Сундук мертвеца через торрент https://d.radikal.ru/d26/2201/da/43238158e74f.jpg Скачать, смотреть онлайн Пираты Карибского моря: Сундук мертвеца бесплантно в хорошем качестве Описание: Вновь оказавшись в ирреальном мире, лихой капитан Джек Воробей неожиданно узнает, что является должником легендарного капитана ... 10 10 2
Торрент: Зарегистрирован [2022-01-12 08:12] · скачан: 48 раз
Статус: √ проверено
Размер: 50.47 GB
Как cкачать? Как скачать Пираты Карибского моря: Сундук мертвеца через торрент | UTorrent

28-11-2019 20:33  

Отключить всю рекламу на сайте

    Дорогой пользователь! Огромная просьба, поблагодарите релизера, оцените раздачу и оставьте свои комментарий, если Вы скачали Пираты Карибского моря: Сундук мертвеца через торрент бесплатно!
    Комментировать посты могут только пользователи прошедшие не сложную регистрацию
    Показать сообщения:    

    Пираты Карибского моря: Сундук мертвеца через торрент
    Скачать бесплатно Пираты Карибского моря: Сундук мертвеца
    Пираты Карибского моря: Сундук мертвеца скачать торрент
    Пираты Карибского моря: Сундук мертвеца смотреть онлайн
    Cкачать фильм Пираты Карибского моря: Сундук мертвеца бесплатно
    Пираты Карибского моря: Сундук мертвеца скачать торрент в хорошем качестве
    Пираты Карибского моря: Сундук мертвеца смотреть онлайн бесплатно в хорошем качестве


    Вы не можете начинать темы
    Вы не можете отвечать на сообщения
    Вы не можете редактировать свои сообщения
    Вы не можете удалять свои сообщения
    Вы не можете голосовать в опросах
    Вы не можете прикреплять файлы к сообщениям
    Вы можете скачивать файлы