Всегда рабочее зеркало без VPN и Proxy просто перед .vidak.icu напиши любое слово или цифру, Пример http://hvhb.vidak.icu

Лицензия

MVO

1 сезон

1

1 сезон

iTunes

1 сезон

13

1 сезон

Deluxe

pack

Рекомендуем

Repack

30

ВАЖНО

RePack

MK11

RePack

jed

RePack

fifa19

RePack

RDR2

RePack

NEED FOR SPEED™ PAYBACK

Кинопоиск HD

6 сезон

 Острые козырьки 6 сезон

Все сериалы

все сериалы на PB.wtf

RePack

FAR CRY 5
  
Magnet ссылка

Бег улиток / Сезон: 1 / Серии: 1-8 из 8 (Стас Иванов) [2021, Драма, триллер, WEBRip, (Версия 18+)] pb.wtf

Бег улиток через торрент pb.wtf

Раздают: 2 [ 0 KB/s ]
Размер: 5.27 GB | Добавлен: 6 мес. назад | Торрент скачан:102 раза
Смотреть онлайн Бег улиток | Скачать    Ребята, помогите собрать деньги на оплату серверов!!!

19-01-2022 03:45 Бег улиток Скачать торрент  

Бег улиток
Год выпуска: 2021
Страна: Россия
Производство: ПК «Среда» по заказу ООО «МТС Медиа»
Жанр: Драма, триллер
Продолжительность: ~ 00:45:00 серия
Перевод: Не требуется
Субтитры: отсутствуют
Версия 18+.

Режиссер: Стас Иванов



В ролях: Дарья Урсуляк, Полина Шеповалова, Кирилл Жандаров, Валерий Панков, Любовь Толкалина, Евгений Санников, Любовь Константинова, Анастасия Лебедева, Алла Еминцева, Василий Башмаков, Мария Дризик, Татьяна Дубинченко, Максим Тригубчак, Вячеслав Харчёв, Александр Классен, Антон Васильев, Екатерина Кукуй, Сергей Уманов, Юрий Насонов, Надежда Мельникова, Александр Куйкка, Олег Рязанцев, Евгений Иванов, Андрей Папанин, Данил Мухин, Валерий Соловьев, Денис Портнов, Дмитрий Собачкин, Артём Злобин, Иван Шевченко, Иван Капорин, Даниил Киселёв, Александр Петров, Мария Сандлер, Арсений Александров, Елена Донина, Виталий Такс, Валентина Лебедева, Евгений Антонов, Олег Абалян, Александр Клемантович, Анжелика Ежова, Юлия Марченко, Юлия Чесняк, Сергей Стукалов, Антон Чернов, Павел Юринов, Дмитрий Лавров, Василий Гузов, Василий Реутов

Описание: Марина работает в кризисном центре для подростков. От сумасшедшей нагрузки у нее случается инсульт, появляются провалы в памяти. Она не помнит, что случилось с ее пациенткой Лерой, которая загадочным образом исчезла из центра. Марина пытается найти и спасти девочку, замечая, что мир вокруг нее становится все более странным. Зритель втягивается в воронку опасности, открывая для себя существование параллельного мира, в котором Марина - отчаянная журналистка, ведущая рискованное расследование. Героиням придется пройти большой путь, чтобы понять, что происходит на самом деле...

Качество: WEBRip
Формат: AVI

Видео: XviD, 720x400, ~ 1750 Кбит/с, 0.244 bit/pixel, 25 Кадр/с
Аудио 1: AC3, 48,0 КГц, 2 ch, 192 Кбит/с | С цензурой
Аудио 2: AC3, 48,0 КГц, 2 ch, 192 Кбит/с | Без цензуры (18+)
скриншот  скриншот  скриншот  скриншот  скриншот  скриншот  

Общее
Полное имя : D:\Beg.ulitok.2021.WEB-DLRip.25Kuzmich\Beg.ulitok.e01.WEB-DLRip.25Kuzmich.avi
Формат : AVI
Формат/Информация : Audio Video Interleave
Размер файла : 683 Мбайт
Продолжительность : 44 м. 17 с.
Общий поток : 2 155 Кбит/сек
Программа кодирования : VirtualDubMod 1.5.10.3 (build 2550/release)
Библиотека кодирования : VirtualDubMod build 2550/release

Видео
Идентификатор : 0
Формат : MPEG-4 Visual
Профиль формата : Advanced [email protected]
Настройки формата : BVOP1
Параметр BVOP формата : 1
Параметр QPel формата : Нет
Параметр GMC формата : Без точки перехода
Параметр матрицы формата : Default (MPEG)
Идентификатор кодека : XVID
Идентификатор кодека/Подсказка : XviD
Продолжительность : 44 м. 17 с.
Битрейт : 1 757 Кбит/сек
Ширина : 720 пикселей
Высота : 400 пикселей
Соотношение сторон : 16:9
Частота кадров : 25,000 кадров/сек
Цветовое пространство : YUV
Субдискретизация насыщенности : 4:2:0
Битовая глубина : 8 бит
Тип развёртки : Прогрессивная
Метод сжатия : С потерями
Бит/(Пиксели*Кадры) : 0.244
Размер потока : 556 Мбайт (82%)
Библиотека кодирования : XviD 73

Аудио #1
Идентификатор : 1
Формат : AC-3
Формат/Информация : Audio Coding 3
Коммерческое название : Dolby Digital
Идентификатор кодека : 2000
Продолжительность : 44 м. 17 с.
Вид битрейта : Постоянный
Битрейт : 192 Кбит/сек
Каналы : 2 канала
Channel layout : L R
Частота : 48,0 КГц
Частота кадров : 31,250 кадров/сек (1536 SPF)
Метод сжатия : С потерями
Размер потока : 60,8 Мбайт (9%)
Выравнивание : Разделение по промежуткам
Продолжительность промежутка : 40 мс. (1,00 видеокадр)
Время предзагрузки промежутка : 500 мс.
Service kind : Complete Main

Аудио #2
Идентификатор : 2
Формат : AC-3
Формат/Информация : Audio Coding 3
Коммерческое название : Dolby Digital
Идентификатор кодека : 2000
Продолжительность : 44 м. 16 с.
Вид битрейта : Постоянный
Битрейт : 192 Кбит/сек
Каналы : 2 канала
Channel layout : L R
Частота : 48,0 КГц
Частота кадров : 31,250 кадров/сек (1536 SPF)
Метод сжатия : С потерями
Размер потока : 60,8 Мбайт (9%)
Выравнивание : Разделение по промежуткам
Продолжительность промежутка : 40 мс. (1,00 видеокадр)
Время предзагрузки промежутка : 500 мс.
Service kind : Complete Main

Раздача ведётся путём добавления новых серий, при каждом добавлении создаётся новый торрент. Чтобы начать докачку новой серии, пользователям необходимо сделать следующее:
- Остановить скачивание.
- Удалить старый торрент у себя из клиента (старые серии удалять не надо).
- Скачать новый торрент и запустить его у себя в клиенте вместо старого, при этом указать клиенту путь в старую папку куда и должно происходить скачивание новых серий.
Ваш клиент при этом должен произвести хеширование (проверку) старой папки (если не производит сам - помогите ему сделать это), и будет докачивать только те серии которых у вас ещё нет. Старые серии при этом не удаляются, а продолжают раздаваться!
pb.wtf



Скачать Бег улиток через торрент https://a.radikal.ru/a30/2201/90/2584e73e03ac.jpg Скачать, смотреть онлайн Бег улиток бесплантно в хорошем качестве Описание: Марина работает в кризисном центре для подростков. От сумасшедшей нагрузки у нее случается инсульт, появляются провалы в памяти. ... 8.4 10 13
Торрент: Зарегистрирован [2022-01-25 00:46] · скачан: 102 раз
Статус: √ проверено
Размер: 5.27 GB
Как cкачать? Как скачать Бег улиток через торрент | UTorrent

% Раздел Тема Автор DL S | L
Наши сериалы [ 4.62 GB ] Бег улиток / Сезон: 1 / Серии: 1-8 из 8 [2021 WEBRip-AVC ] bober100 Скачать
1 | 0
Наши сериалы [ 9.6 GB ] Бег улиток / Сезон: 1 / Серии: 1-8 из 8 [2021 WEBRip 720p ] bober100 Скачать
1 | 0
Наши сериалы [ 14.83 GB ] Бег улиток / Сезон: 1 / Серии: 1-8 из 8 [2021 WEBRip 1080p ] bober100 Скачать
3 | 0

28-11-2019 20:33  

Отключить вcю реклaмy на сайте

    Дорогой пользователь! Огромная просьба, поблагодарите релизера, оцените раздачу и оставьте свои комментарий, если Вы скачали Бег улиток через торрент бесплатно!
    Комментировать посты могут только пользователи прошедшие не сложную регистрацию
    Показать сообщения:    

    Бег улиток через торрент
    Скачать бесплатно Бег улиток
    Бег улиток скачать торрент
    Бег улиток смотреть онлайн
    Cкачать фильм Бег улиток бесплатно
    Бег улиток скачать торрент в хорошем качестве
    Бег улиток смотреть онлайн бесплатно в хорошем качестве


    Вы не можете начинать темы
    Вы не можете отвечать на сообщения
    Вы не можете редактировать свои сообщения
    Вы не можете удалять свои сообщения
    Вы не можете голосовать в опросах
    Вы не можете прикреплять файлы к сообщениям
    Вы можете скачивать файлы