Всегда рабочее зеркало без VPN и Proxy просто перед .vidak.icu напиши любое слово или цифру, Пример http://4d8w.vidak.icu

Лицензия

MVO

1 сезон

1

1 сезон

iTunes

1 сезон

13

1 сезон

Deluxe

pack

Рекомендуем

Repack

30

ВАЖНО

RePack

MK11

RePack

jed

RePack

fifa19

RePack

RDR2

RePack

NEED FOR SPEED™ PAYBACK

Кинопоиск HD

6 сезон

 Острые козырьки 6 сезон

Все сериалы

все сериалы на PB.wtf

RePack

FAR CRY 5
  
Magnet ссылка

Дикие / Сезон: 1 / Серии: 1-8 из 16 (Руслан Ханумак) [2021, Комедия, WEB-DL 720p] pb.wtf

Дикие через торрент pb.wtf

Размер: 2.61 GB | Добавлен: 6 мес. назад | Торрент скачан:10 раз
Смотреть онлайн Дикие | Скачать    Ребята, помогите собрать деньги на оплату серверов!!!

24-01-2022 07:06 Дикие Скачать торрент  

Дикие
Год выпуска: 2021
Страна: Украина
Студия: Студия "Квартал 95"
Жанр: Комедия
Продолжительность: 00:21:30
Перевод: Не требуется
Субтитры: отсутствуют

Режиссер: Руслан Ханумак



В ролях: Руслан Ханумак, Эльдар Кабиров, Дарья Петрожицкая, Михаил Кукуюк, Арам Арзуманян, Алексей Завгородний (Позитив), Нина Антонова

Описание: "Дикие" — это юмористический киноальманах, состоящим из короткометражных фильмов, никак не связанных между собой. Аудитория получает возможность по-иному посмотреть на привычные для каждого жизненные ситуации. Зрителей ожидают более 100 историй, не связанных между собой (по 5-6 в каждой серии), около 80 персонажей и нестандартный юмор, будут даже экстремальные события, происходящие с главными героями, которые воплощают представителей различных эпох.

Качество: WEB-DL 720p
Формат: MKV

Видео: MPEG-4 AVC, ~ 1800 Кбит/с, 1280x532, 25 кадр/с
Аудио: 48.0 kHz, AC3 Dolby Digital, 2/0 (L,R) ch, ~ 192 kbps
скриншот  скриншот  скриншот  скриншот  скриншот  

General
Unique ID : 229319881951992216134894571386957376816 (0xAC85671A96D4EAC5B71761EB3F2AAD30)
Complete name : C:01.Дикие.s01.E01.(2021).WEB-DL (720p).by.Nicodem.Files-x.mkv
Format : Matroska
File size : 301 MiB
Duration : 21mn 22s
Overall bit rate : 1 969 Kbps
Encoded date : UTC 2022-01-23 07:43:30
Writing application : mkvmerge v7.8.0 ('River Man') 32bit built on Apr 3 2015 12:11:22
Writing library : libebml v1.3.1 + libmatroska v1.4.2

Video
ID : 1
Format : AVC
Format/Info : Advanced Video Codec
Format profile : [email protected]
Format settings, CABAC : Yes
Format settings, ReFrames : 4 frames
Codec ID : V_MPEG4/ISO/AVC
Duration : 21mn 22s
Bit rate : 1 800 Kbps
Width : 1 280 pixels
Height : 532 pixels
Display aspect ratio : 2.40:1
Frame rate mode : Variable
Frame rate : 25.000 fps
Color space : YUV
Chroma subsampling : 4:2:0
Bit depth : 8 bits
Scan type : Progressive
Bits/(Pixel*Frame) : 0.106
Stream size : 266 MiB (88%)
Writing library : x264 core 155 r2917 0a84d98
Encoding settings : cabac=1 / ref=3 / deblock=1:0:0 / analyse=0x3:0x113 / me=hex / subme=7 / psy=1 / psy_rd=1.00:0.00 / mixed_ref=1 / me_range=16 / chroma_me=1 / trellis=1 / 8x8dct=1 / cqm=0 / deadzone=21,11 / fast_pskip=1 / chroma_qp_offset=-2 / threads=12 / lookahead_threads=2 / sliced_threads=0 / nr=0 / decimate=1 / interlaced=0 / bluray_compat=0 / constrained_intra=0 / bframes=3 / b_pyramid=2 / b_adapt=1 / b_bias=0 / direct=1 / weightb=1 / open_gop=0 / weightp=2 / keyint=75 / keyint_min=25 / scenecut=40 / intra_refresh=0 / rc_lookahead=40 / rc=2pass / mbtree=0 / bitrate=1800 / ratetol=1.0 / qcomp=0.60 / qpmin=0 / qpmax=69 / qpstep=4 / cplxblur=20.0 / qblur=0.5 / vbv_maxrate=2000 / vbv_bufsize=1800 / nal_hrd=none / filler=0 / ip_ratio=1.40 / pb_ratio=1.30 / aq=1:1.00

Audio
ID : 2
Format : AC-3
Format/Info : Audio Coding 3
Mode extension : CM (complete main)
Codec ID : A_AC3
Duration : 21mn 22s
Bit rate mode : Constant
Bit rate : 192 Kbps
Channel(s) : 2 channels
Channel positions : Front: L R
Sampling rate : 48.0 KHz
Bit depth : 16 bits
Compression mode : Lossy
Stream size : 29.4 MiB (10%)

Внимание! Раздача ведётся путём добавления новых серий; при каждом добавлении создаётся новый торрент.
Чтобы начать докачку новой серии, пользователям необходимо сделать следующее:
1. Остановить скачивание;
2. Удалить старый торрент у себя из клиента (старые серии удалять не надо);
3. Скачать новый торрент и запустить его у себя в клиенте вместо старого, при этом указать клиенту путь в старую папку куда и должно происходить скачивание новых серий. Ваш клиент при этом должен произвести хеширование (проверку) старой папки и будет докачивать только те серии, которых у вас ещё нет. Старые серии при этом не удаляются, а продолжают раздаваться! Eсли вы уже удалили старые серии, то предотвратить повторную закачку старых серий можно, отжав галочку в соответствующих местах при запуске нового торрента.

pb.wtf



Скачать Дикие через торрент https://i3.imageban.ru/out/2022/01/23/e9ad33bc1eec0fec3a59eea2c22ee290.jpg Скачать, смотреть онлайн Дикие бесплантно в хорошем качестве Описание: "Дикие" — это юмористический киноальманах, состоящим из короткометражных фильмов, никак не связанных между собой. Аудитория ... 10 10 5
Торрент: Зарегистрирован [2022-02-15 04:33] · скачан: 10 раз
Статус: √ проверено
Размер: 2.61 GB
Как cкачать? Как скачать Дикие через торрент | UTorrent



Последний раз редактировалось: bober100 (2022-02-15 04:33), всего редактировалось 2 раз(а)

28-11-2019 20:33  

Отключить вcю реклaмy на сайте

24-01-2022 14:43 Дикие Скачать торрент  

1 скрин конечно агоньььььььpb.wtf



    Дорогой пользователь! Огромная просьба, поблагодарите релизера, оцените раздачу и оставьте свои комментарий, если Вы скачали Дикие через торрент бесплатно!
    Комментировать посты могут только пользователи прошедшие не сложную регистрацию
    Показать сообщения:    

    Дикие через торрент
    Скачать бесплатно Дикие
    Дикие скачать торрент
    Дикие смотреть онлайн
    Cкачать фильм Дикие бесплатно
    Дикие скачать торрент в хорошем качестве
    Дикие смотреть онлайн бесплатно в хорошем качестве


    Вы не можете начинать темы
    Вы не можете отвечать на сообщения
    Вы не можете редактировать свои сообщения
    Вы не можете удалять свои сообщения
    Вы не можете голосовать в опросах
    Вы не можете прикреплять файлы к сообщениям
    Вы можете скачивать файлы