Доктор Стрэндж

Лицензия

Добыча

Дубляж

Дом дракона

1 сезон

Тор

Дубляж

В эфире

Дубляж

Там, где раки поют

MVO

Властелин колец

1 сезон

Deluxe

pack

Рекомендуем

30

Пиратка

ВАЖНО

ВАЖНО

Ghostwire

Пиратка

jed

RePack

nioh2

RePack

RDR2

RePack

NEED FOR SPEED™ PAYBACK

RePack

скачать торрент

Кинопоиск HD

Острые козырьки 6 сезон

6 сезон

FAR CRY 6

RePack

скачать торрент

Лицензия

скачать торрент

MVO

1

1 сезон

скачать торрент

1 сезон

скачать торрент

Лицензия

  

Женщина в доме напротив девушки в окне / The Woman in the House Across the Street from the Girl in the Window / Сезон: 1 / Серии: 1-8 (Майкл Леманн) [2022, триллер, драма, комедия, криминал, WEB-DL (HEVC), HDR 1080p] Дубляж

Женщина в доме напротив девушки в окне через торрент pb.wtf

Раздают: 1 [ 0 KB/s ]
Размер: 9.48 GB | Добавлен: 10 мес. назад | Торрент скачан:101 раз
Смотреть онлайн | Скачать   

29-01-2022 15:44 Женщина в доме напротив девушки в окне Скачать торрент  

Женщина в доме напротив девушки в окне / The Woman in the House Across the Street from the Girl in the Window



Страна: США
Студия: Gloria Sanchez Productions
Жанр: триллер, драма, комедия, криминал, детектив
Год выпуска: 2022
Продолжительность: ~00:30:00

Перевод: Профессиональный (дублированный) VSI Moscow

Режиссер: Майкл Леманн

В ролях: Майкл Или, Аппи Пратт, Николь Пуллиам, Кристен Белл, Том Райли, Рэйчел Дугай, Кристофер Чен, Абхи Триведи, Шелли Хенниг, Камерон Бриттон

Описание: Сердце Анны разбито, и дни тянутся безликой чередой. С бокалом вина у окна, она наблюдает, как жизнь проходит мимо, пока однажды в дом напротив не переезжает симпатичный сосед с очаровательной дочкой. Анна начинает думать, что это свет в конце тоннеля, но тут на её глазах происходит жестокое убийство… Или ей показалось?
rating
Сэмпл

Тип релиза: WEB-DL 1080p [The.Woman.in.the.House.Across.the.Street.from.the.Girl.in.the.Window.S01.1080p.NF.WEB-DL.DDP5.1.Atmos.HDR.HEVC-TEPES]
Контейнер: MKV
Видео: MPEG-H HEVC Video / ~5451 kbps / 1920x1080 / 23,976 fps / 16:9 / Main [email protected]@Main / 4:2:0 / 10 bits / 1000nits / HDR10 / BT.2020
Аудио 1: Russian E-AC3 / 5.1 / 48 kHz / 640 kbps |Дубляж, VSI Moscow|
Аудио 2: English E-AC3+Atmos / 5.1 / 48 kHz / 768 kbps |original|
Субтитры: русские (forced, full), английские (full, SDH)
Реклама: Отсутствует

Код:

General
Unique ID                                : 128144304663545607249050765553809797463 (0x6067B202D01574D35F24BF55D84CB157)
Complete name                            : H:\HD\Женщина в доме напротив девушки в окне.S01.WEB-DL.1080.HDR\Женщина в доме напротив девушки в окне.S01E01.WEB-DL.1080p.HDR.mkv
Format                                   : Matroska
Format version                           : Version 4
File size                                : 1.36 GiB
Duration                                 : 29 min 26 s
Overall bit rate                         : 6 638 kb/s
Encoded date                             : UTC 2022-01-29 14:08:37
Writing application                      : mkvmerge v64.0.0 ('Willows') 64-bit
Writing library                          : libebml v1.4.2 + libmatroska v1.6.4
Attachments                              : poster.jpg

Video
ID                                       : 1
Format                                   : HEVC
Format/Info                              : High Efficiency Video Coding
Format profile                           : Main [email protected]@Main
HDR format                               : SMPTE ST 2086, HDR10 compatible
Codec ID                                 : V_MPEGH/ISO/HEVC
Duration                                 : 28 min 13 s
Bit rate                                 : 5 451 kb/s
Width                                    : 1 920 pixels
Height                                   : 1 080 pixels
Display aspect ratio                     : 16:9
Frame rate mode                          : Constant
Frame rate                               : 23.976 (24000/1001) FPS
Color space                              : YUV
Chroma subsampling                       : 4:2:0 (Type 2)
Bit depth                                : 10 bits
Bits/(Pixel*Frame)                       : 0.110
Stream size                              : 1.07 GiB (79%)
Default                                  : Yes
Forced                                   : No
Color range                              : Limited
Color primaries                          : BT.2020
Transfer characteristics                 : PQ
Matrix coefficients                      : BT.2020 non-constant
Mastering display color primaries        : Display P3
Mastering display luminance              : min: 0.0001 cd/m2, max: 1000 cd/m2
Maximum Content Light Level              : 756 cd/m2
Maximum Frame-Average Light Level        : 97 cd/m2

Audio #1
ID                                       : 2
Format                                   : E-AC-3
Format/Info                              : Enhanced AC-3
Commercial name                          : Dolby Digital Plus
Codec ID                                 : A_EAC3
Duration                                 : 29 min 26 s
Bit rate mode                            : Constant
Bit rate                                 : 640 kb/s
Channel(s)                               : 6 channels
Channel layout                           : L R C LFE Ls Rs
Sampling rate                            : 48.0 kHz
Frame rate                               : 31.250 FPS (1536 SPF)
Compression mode                         : Lossy
Stream size                              : 135 MiB (10%)
Title                                    : Дубляж, VSI Moscow
Language                                 : Russian
Service kind                             : Complete Main
Default                                  : Yes
Forced                                   : No

Audio #2
ID                                       : 3
Format                                   : E-AC-3 JOC
Format/Info                              : Enhanced AC-3 with Joint Object Coding
Commercial name                          : Dolby Digital Plus with Dolby Atmos
Codec ID                                 : A_EAC3
Duration                                 : 29 min 26 s
Bit rate mode                            : Constant
Bit rate                                 : 768 kb/s
Channel(s)                               : 6 channels
Channel layout                           : L R C LFE Ls Rs
Sampling rate                            : 48.0 kHz
Frame rate                               : 31.250 FPS (1536 SPF)
Compression mode                         : Lossy
Stream size                              : 162 MiB (12%)
Language                                 : English
Service kind                             : Complete Main
Default                                  : No
Forced                                   : No
Complexity index                         : 16
Number of dynamic objects                : 15
Bed channel count                        : 1 channel
Bed channel configuration                : LFE

Text #1
ID                                       : 4
Format                                   : UTF-8
Codec ID                                 : S_TEXT/UTF8
Codec ID/Info                            : UTF-8 Plain Text
Duration                                 : 27 min 57 s
Bit rate                                 : 3 b/s
Count of elements                        : 17
Stream size                              : 738 Bytes (0%)
Title                                    : forced
Language                                 : Russian
Default                                  : Yes
Forced                                   : No

Text #2
ID                                       : 5
Format                                   : UTF-8
Codec ID                                 : S_TEXT/UTF8
Codec ID/Info                            : UTF-8 Plain Text
Duration                                 : 27 min 57 s
Bit rate                                 : 56 b/s
Count of elements                        : 319
Stream size                              : 11.6 KiB (0%)
Title                                    : full
Language                                 : Russian
Default                                  : No
Forced                                   : No

Text #3
ID                                       : 6
Format                                   : UTF-8
Codec ID                                 : S_TEXT/UTF8
Codec ID/Info                            : UTF-8 Plain Text
Duration                                 : 27 min 13 s
Bit rate                                 : 40 b/s
Count of elements                        : 294
Stream size                              : 8.10 KiB (0%)
Title                                    : full
Language                                 : English
Default                                  : No
Forced                                   : No

Text #4
ID                                       : 7
Format                                   : UTF-8
Codec ID                                 : S_TEXT/UTF8
Codec ID/Info                            : UTF-8 Plain Text
Duration                                 : 27 min 59 s
Bit rate                                 : 51 b/s
Count of elements                        : 404
Stream size                              : 10.5 KiB (0%)
Title                                    : SDH
Language                                 : English
Default                                  : No
Forced                                   : No

скриншот  скриншот  скриншот  



Скачать Женщина в доме напротив девушки в окне через торрент https://images4.imagebam.com/ef/03/d2/ME75GB6_o.jpg Скачать, смотреть онлайн Женщина в доме напротив девушки в окне бесплантно в хорошем качестве Описание: Сердце Анны разбито, и дни тянутся безликой чередой. С бокалом вина у окна, она наблюдает, как жизнь проходит мимо, пока однажды ... 10 10 4
Торрент: Зарегистрирован [2022-01-29 15:44] · скачан: 101 раз
Статус: √ проверено
Размер: 9.48 GB
Как cкачать? Как скачать Женщина в доме напротив девушки в окне через торрент | UTorrent

28-11-2019 20:33  


Отключить вcю реклaмy на сайте, в т.ч. и в плеере онлайн просмотра!

    Дорогой пользователь! Огромная просьба, поблагодарите релизера, оцените раздачу и оставьте свои комментарий, если Вы скачали Женщина в доме напротив девушки в окне через торрент бесплатно!!
    Комментировать посты могут только пользователи прошедшие не сложную регистрацию
    Показать сообщения:    


    Женщина в доме напротив девушки в окне через торрент
    Скачать бесплатно Женщина в доме напротив девушки в окне
    Женщина в доме напротив девушки в окне скачать торрент
    Женщина в доме напротив девушки в окне смотреть онлайн
    Cкачать фильм Женщина в доме напротив девушки в окне бесплатно
    Женщина в доме напротив девушки в окне скачать торрент в хорошем качестве
    Женщина в доме напротив девушки в окне смотреть онлайн бесплатно в хорошем качестве
    Вы не можете начинать темы
    Вы не можете отвечать на сообщения
    Вы не можете редактировать свои сообщения
    Вы не можете удалять свои сообщения
    Вы не можете голосовать в опросах
    Вы не можете прикреплять файлы к сообщениям
    Вы можете скачивать файлы
    Женщина в доме напротив девушки в окне / The Woman in the House Across the Street from the Girl in the Window / Сезон: 1 / Серии: 1-8 [2022, триллер, драма, комедия, криминал, WEB-DL , HDR 1080p] Дубляж смотреть онлайн, скачать торрент picoco.icu