Доктор Стрэндж

Лицензия

Добыча

Дубляж

Дом дракона

1 сезон

Тор

Дубляж

В эфире

Дубляж

Там, где раки поют

MVO

Властелин колец

1 сезон

Deluxe

pack

Рекомендуем

30

Пиратка

ВАЖНО

ВАЖНО

Ghostwire

Пиратка

jed

RePack

nioh2

RePack

RDR2

RePack

NEED FOR SPEED™ PAYBACK

RePack

скачать торрент

Кинопоиск HD

Острые козырьки 6 сезон

6 сезон

FAR CRY 6

RePack

скачать торрент

Лицензия

скачать торрент

MVO

1

1 сезон

скачать торрент

1 сезон

скачать торрент

Лицензия

  

Энканто / Encanto (Джаред Буш, Байрон Ховард, Чариз Кастро Смит) [2021, Мультфильм, мюзикл, фэнтези, драма, комедия, семейный, BDRip-AVC] Дубляж [iTunes] от ExKinoRay

Энканто через торрент pb.wtf

Раздают: 2 [ 0 KB/s ]
Размер: 2.2 GB | Добавлен: 10 мес. назад | Торрент скачан:211 раз
Смотреть онлайн | Скачать   

29-01-2022 18:30 Энканто Скачать торрент  


Энканто / Encanto
Название: Энканто
Оригинальное название: Encanto
Год выхода: 2021
Жанр: Мультфильм, мюзикл, фэнтези, комедия, приключения, семейный, полнометражный
Режиссер: Джаред Буш, Байрон Ховард, Чариз Кастро Смит

В ролях: Стефани Беатриз, Мария Сесилия Ботеро, Джон Легуизамо, Мауро Кастильо, Джессика Дарроу, Энджи Сепеда, Каролина Гайтан, Дайан Герреро, Уилмер Вальдеррама, Рензи Фелиз

Описание: Удивительная семья Мадригалов живет в спрятанном в горах Колумбии волшебном доме, расположенном в чудесном и очаровательном уголке под названием Энканто. Каждого ребёнка в семье Мадригалов магия этого места благословила уникальным даром - от суперсилы до способности исцелять. Увы, магия обошла стороной одну лишь юную Мирабель. Обнаружив, что магия Энканто находится в опасности, Мирабель решает, что именно она может быть последней надеждой на спасение своей особенной семьи.



Страна: США
Студия: Walt Disney Animation Studios, Walt Disney Pictures
Продолжительность: 01:42:07
Перевод: Дублированный - iTunes



Информация о файле:
Кодек: AVC
Формат: MKV
Качество: BDRip-AVC | Encanto.2021.BDREMUX.1080p.seleZen
Видео: MPEG-4 AVC, 1024x552, 23.976 fps, 2250 kb/s
Аудио RU: AC3, 6 ch, 48 kHz, 384 kbps
Аудио EN: AC3, 6 ch, 48 kHz, 448 kbps
Субтитры: Русские (Forced, full, SDH), английские

семпл
x264 info: frame I:1364 Avg QP:14.69 size: 91898
x264 info: frame P:40500 Avg QP:18.17 size: 23326
x264 info: frame B:105037 Avg QP:19.96 size: 6219
x264 info: consecutive B-frames: 4.9% 5.0% 13.5% 41.9% 16.2% 13.3% 2.3% 1.3% 0.7% 0.4% 0.5%
General
Unique ID : 337865724398843750111002171335339395353 (0xFE2E9253142C0054B00814F20FB3C919)
Complete name : D:uTorrentРипы wolf1245Encanto.2021.Дубляж.iTunes.BDRip-AVC.[wolf1245.ExKinoRay].mkv
Format : Matroska
Format version : Version 4
File size : 2.20 GiB
Duration : 1 h 42 min
Overall bit rate : 3 074 kb/s
Movie name : Encanto.2021.Дубляж.iTunes.BDRip-AVC.[wolf1245.ExKinoRay]
Encoded date : UTC 2022-01-29 18:16:52
Writing application : mkvmerge v64.0.0 ('Willows') 64-bit
Writing library : libebml v1.4.2 + libmatroska v1.6.4
Video
ID : 1
Format : AVC
Format/Info : Advanced Video Codec
Format profile : [email protected]
Format settings : CABAC / 12 Ref Frames
Format settings, CABAC : Yes
Format settings, Reference frames : 12 frames
Codec ID : V_MPEG4/ISO/AVC
Duration : 1 h 42 min
Bit rate : 2 250 kb/s
Width : 1 024 pixels
Height : 552 pixels
Display aspect ratio : 1.85:1
Frame rate mode : Constant
Frame rate : 23.976 (24000/1001) FPS
Color space : YUV
Chroma subsampling : 4:2:0
Bit depth : 8 bits
Scan type : Progressive
Bits/(Pixel*Frame) : 0.166
Stream size : 1.60 GiB (73%)
Title : -=[wolf1245.ExKinoRay]=-
Writing library : x264 core 163 r3060 5db6aa6
Encoding settings : cabac=1 / ref=12 / deblock=1:-3:-3 / analyse=0x3:0x133 / me=umh / subme=10 / psy=1 / psy_rd=1.02:0.15 / mixed_ref=1 / me_range=48 / chroma_me=1 / trellis=2 / 8x8dct=1 / cqm=0 / deadzone=21,11 / fast_pskip=1 / chroma_qp_offset=-3 / threads=10 / lookahead_threads=2 / sliced_threads=0 / nr=0 / decimate=0 / interlaced=0 / bluray_compat=0 / constrained_intra=0 / bframes=10 / b_pyramid=2 / b_adapt=2 / b_bias=0 / direct=3 / weightb=1 / open_gop=0 / weightp=2 / keyint=240 / keyint_min=24 / scenecut=40 / intra_refresh=0 / rc_lookahead=60 / rc=2pass / mbtree=0 / bitrate=2250 / ratetol=1.0 / qcomp=0.60 / qpmin=0 / qpmax=69 / qpstep=4 / cplxblur=20.0 / qblur=0.5 / vbv_maxrate=50000 / vbv_bufsize=62500 / nal_hrd=none / filler=0 / ip_ratio=1.40 / pb_ratio=1.30 / aq=1:1.00
Language : English
Default : Yes
Forced : No
Audio #1
ID : 2
Format : AC-3
Format/Info : Audio Coding 3
Commercial name : Dolby Digital
Codec ID : A_AC3
Duration : 1 h 42 min
Bit rate mode : Constant
Bit rate : 384 kb/s
Channel(s) : 6 channels
Channel layout : L R C LFE Ls Rs
Sampling rate : 48.0 kHz
Frame rate : 31.250 FPS (1536 SPF)
Compression mode : Lossy
Stream size : 282 MiB (12%)
Title : Дубляж | iTunes | RUS
Language : Russian
Service kind : Complete Main
Default : Yes
Forced : Yes
Audio #2
ID : 3
Format : AC-3
Format/Info : Audio Coding 3
Commercial name : Dolby Digital
Codec ID : A_AC3
Duration : 1 h 42 min
Bit rate mode : Constant
Bit rate : 448 kb/s
Channel(s) : 6 channels
Channel layout : L R C LFE Ls Rs
Sampling rate : 48.0 kHz
Frame rate : 31.250 FPS (1536 SPF)
Compression mode : Lossy
Stream size : 327 MiB (15%)
Title : Original | ENG
Language : English
Service kind : Complete Main
Default : Yes
Forced : No
Text #1
ID : 4
Format : UTF-8
Codec ID : S_TEXT/UTF8
Codec ID/Info : UTF-8 Plain Text
Duration : 55 min 23 s
Bit rate : 0 b/s
Count of elements : 5
Stream size : 64.0 Bytes (0%)
Title : Forced
Language : Russian
Default : Yes
Forced : Yes
Text #2
ID : 5
Format : UTF-8
Codec ID : S_TEXT/UTF8
Codec ID/Info : UTF-8 Plain Text
Duration : 1 h 40 min
Bit rate : 89 b/s
Count of elements : 1223
Stream size : 66.1 KiB (0%)
Title : Full
Language : Russian
Default : No
Forced : No
Text #3
ID : 6
Format : UTF-8
Codec ID : S_TEXT/UTF8
Codec ID/Info : UTF-8 Plain Text
Duration : 1 h 36 min
Bit rate : 102 b/s
Count of elements : 1655
Stream size : 72.5 KiB (0%)
Title : SDH
Language : Russian
Default : No
Forced : No
Text #4
ID : 7
Format : UTF-8
Codec ID : S_TEXT/UTF8
Codec ID/Info : UTF-8 Plain Text
Duration : 1 h 36 min
Bit rate : 61 b/s
Count of elements : 1598
Stream size : 43.2 KiB (0%)
Title : Full
Language : English
Default : No
Forced : No
Text #5
ID : 8
Format : UTF-8
Codec ID : S_TEXT/UTF8
Codec ID/Info : UTF-8 Plain Text
Duration : 1 h 36 min
Bit rate : 71 b/s
Count of elements : 1837
Stream size : 50.3 KiB (0%)
Title : SDH
Language : English
Default : No
Forced : No
Menu
00:00:00.000 : :Chapter 01
00:03:57.654 : :Chapter 02
00:09:49.297 : :Chapter 03
00:15:07.573 : :Chapter 04
00:16:54.889 : :Chapter 05
00:21:48.807 : :Chapter 06
00:24:54.910 : :Chapter 07
00:28:58.612 : :Chapter 08
00:31:10.619 : :Chapter 09
00:38:35.104 : :Chapter 10
00:44:57.820 : :Chapter 11
00:53:39.967 : :Chapter 12
01:01:22.345 : :Chapter 13
01:06:28.067 : :Chapter 14
01:11:41.255 : :Chapter 15
01:16:38.135 : :Chapter 16
01:24:25.394 : :Chapter 17
01:31:02.207 : :Chapter 18
Релиз от: VK релиз-группы




Скачать Энканто через торрент https://i116.fastpic.org/big/2022/0129/59/d0265d5ddbc3f813a8b2b87e8227c459.jpg Скачать, смотреть онлайн Энканто бесплантно в хорошем качестве Описание: Удивительная семья Мадригалов живет в спрятанном в горах Колумбии волшебном доме, расположенном в чудесном и очаровательном ... 9.8 10 4
Торрент: Зарегистрирован [2022-01-29 18:30] · скачан: 211 раз
Статус: √ проверено
Размер: 2.2 GB
Как cкачать? Как скачать Энканто через торрент | UTorrent

% Раздел Тема Автор DL S | L
Мультфильмы (48-60 fps) [ 3.73 GB ] Энканто / Encanto | iTunes | 720p / 60 FPS iTunes slaventi-69 Скачать
3 | 1
Иностранные мультфильмы [ 1.42 GB ] Энканто / Encanto | Лицензия | BDRip Twi7ter Скачать
26 | 0
Зарубежные Мультфильмы (BDRip 1080p, 720p, Blu-ray, BD-Remux) [ 5.1 GB ] Энканто / Encanto | iTunes | 720p bober100 Скачать
1 | 0
Иностранные мультфильмы [ 2.39 GB ] Энканто / Encanto | iTunes | BDRip-AVC bober100 Скачать
3 | 0
Иностранные мультфильмы [ 1.42 GB ] Энканто / Encanto | iTunes | BDRip bober100 Скачать
2 | 0
Иностранные мультфильмы [ 746 MB ] Энканто / Encanto | iTunes | BDRip bober100 Скачать
3 | 0
Ultra HD (UHD: 2K, 4K, 8K) [ 16.77 GB ] Энканто / Encanto | iTunes | 2160p bober100 Скачать
2 | 0

28-11-2019 20:33  


Отключить вcю реклaмy на сайте, в т.ч. и в плеере онлайн просмотра!

    Дорогой пользователь! Огромная просьба, поблагодарите релизера, оцените раздачу и оставьте свои комментарий, если Вы скачали Энканто через торрент бесплатно!!
    Комментировать посты могут только пользователи прошедшие не сложную регистрацию
    Показать сообщения:    


    Энканто через торрент
    Скачать бесплатно Энканто
    Энканто скачать торрент
    Энканто смотреть онлайн
    Cкачать фильм Энканто бесплатно
    Энканто скачать торрент в хорошем качестве
    Энканто смотреть онлайн бесплатно в хорошем качестве
    Вы не можете начинать темы
    Вы не можете отвечать на сообщения
    Вы не можете редактировать свои сообщения
    Вы не можете удалять свои сообщения
    Вы не можете голосовать в опросах
    Вы не можете прикреплять файлы к сообщениям
    Вы можете скачивать файлы
    Энканто / Encanto [2021, Мультфильм, мюзикл, фэнтези, драма, комедия, семейный, BDRip-AVC] Дубляж [iTunes] от ExKinoRay смотреть онлайн, скачать торрент picoco.icu