Всегда рабочее зеркало без VPN и Proxy просто перед .vidak.icu напиши любое слово или цифру, Пример http://m8em.vidak.icu

MVO

MVO

1 сезон

1

1 сезон

iTunes

1 сезон

13

1 сезон

Deluxe

pack

Рекомендуем

Repack

30

ВАЖНО

RePack

MK11

RePack

jed

RePack

fifa19

RePack

RDR2

RePack

NEED FOR SPEED™ PAYBACK

Кинопоиск HD

6 сезон

 Острые козырьки 6 сезон

Все сериалы

все сериалы на PB.wtf

RePack

FAR CRY 5
  
Magnet ссылка

Фантастические Грибы / Fantastic Fungi (Луи Шварцберг) [2019, Документальный, BDRip 720p] DVO [Netflix] pb.wtf

Фантастические Грибы через торрент pb.wtf

Размер: 4.52 GB | Добавлен: 6 мес. назад | Торрент скачан:49 раз
Смотреть онлайн Фантастические Грибы | Скачать    Ребята, помогите собрать деньги на оплату серверов!!!

02-02-2022 11:12 Фантастические Грибы Скачать торрент  

Фантастические Грибы
Fantastic Fungi

Год выпуска: 2019
Страна: США
Выпущено: Moving Art Studio, Reconsider
Жанр: Документальный
Продолжительность: 01:20:17
Перевод: Профессиональный (двухголосый) | Netflix
Субтитры: Русские (Forced, 2xFull), английские (Full, SDH)

Режиссер: Луи Шварцберг

rating

В ролях: Бри Ларсон, Эндрю Вейль, Джулиана Фурчи, Тони Хэд, Майкл Поллан, Пол Стаметц, Джей Харман

Описание: Фантастические Грибы - замедленное путешествие в волшебный, таинственный и целебный мир грибов и их роль в восстановлении жизни на Земле, которое началось 3,5 миллиарда лет назад.

Качество: BDRip 720p
Формат: MKV

Видео: MPEG-4 AVC, 1280x720 (2,40:1), 7159 kbps, 23,976 fps
Аудио#1: 48 kHz, AC3, 5.1, 448 kbps | DVO
Аудио#2: 48 kHz, AC3, 5.1, 448 kbps | ENG
скриншот  скриншот  скриншот  скриншот  скриншот  

Общее
Уникальный идентификатор : 265621156175071574693090558218789341334 (0xC7D4C61B4C43227B5838E950E9E24896)
Полное имя : D:\Fantastic.Fungi.2019.BDRip.720p.Rus.Eng.-HELLYWOOD.mkv
Формат : Matroska
Версия формата : Version 4
Размер файла : 4,52 Гбайт
Продолжительность : 1 ч. 20 м.
Общий поток : 8 055 Кбит/сек
Название фильма : Fantastic Fungi (2019)
Дата кодирования : UTC 2022-02-02 10:57:26
Программа кодирования : mkvmerge v62.0.0 ('Apollo') 64-bit
Библиотека кодирования : libebml v1.4.2 + libmatroska v1.6.4

Видео
Идентификатор : 1
Формат : AVC
Формат/Информация : Advanced Video Codec
Профиль формата : [email protected]
Настройки формата : CABAC / 9 Ref Frames
Параметр CABAC формата : Да
Параметр RefFrames формата : 9 кадров
Идентификатор кодека : V_MPEG4/ISO/AVC
Продолжительность : 1 ч. 20 м.
Битрейт : 7 159 Кбит/сек
Ширина : 1 280 пикселей
Высота : 720 пикселей
Соотношение сторон : 16:9
Режим частоты кадров : Постоянный
Частота кадров : 23,976 (24000/1001) кадра/сек
Цветовое пространство : YUV
Субдискретизация насыщенности : 4:2:0
Битовая глубина : 8 бит
Тип развёртки : Прогрессивная
Бит/(Пиксели*Кадры) : 0.324
Размер потока : 3,92 Гбайт (87%)
Заголовок : potroks
Библиотека кодирования : x264 core 163
Настройки программы : cabac=1 / ref=9 / deblock=1:-3:-3 / analyse=0x3:0x133 / me=umh / subme=11 / psy=1 / psy_rd=1.00:0.00 / mixed_ref=1 / me_range=32 / chroma_me=0 / trellis=2 / 8x8dct=1 / cqm=0 / deadzone=21,11 / fast_pskip=0 / chroma_qp_offset=-2 / threads=19 / lookahead_threads=4 / sliced_threads=0 / nr=0 / decimate=1 / interlaced=0 / bluray_compat=0 / constrained_intra=0 / bframes=11 / b_pyramid=2 / b_adapt=2 / b_bias=0 / direct=0 / weightb=1 / open_gop=0 / weightp=2 / keyint=240 / keyint_min=23 / scenecut=40 / intra_refresh=0 / rc_lookahead=100 / rc=2pass / mbtree=0 / bitrate=7159 / ratetol=1.0 / qcomp=0.70 / qpmin=0 / qpmax=69 / qpstep=5 / cplxblur=20.0 / qblur=0.5 / vbv_maxrate=50000 / vbv_bufsize=62800 / nal_hrd=none / filler=0 / ip_ratio=1.40 / pb_ratio=1.30 / aq=1:0.80
Язык : English
Default : Да
Forced : Нет

Аудио #1
Идентификатор : 2
Формат : AC-3
Формат/Информация : Audio Coding 3
Коммерческое название : Dolby Digital
Идентификатор кодека : A_AC3
Продолжительность : 1 ч. 20 м.
Вид битрейта : Постоянный
Битрейт : 448 Кбит/сек
Каналы : 6 каналов
Channel layout : L R C LFE Ls Rs
Частота : 48,0 КГц
Частота кадров : 31,250 кадров/сек (1536 SPF)
Метод сжатия : С потерями
Размер потока : 257 Мбайт (6%)
Заголовок : DVO | DD 5.1 @ 448 kbps - Netflix
Язык : Russian
Service kind : Complete Main
Default : Да
Forced : Нет

Аудио #2
Идентификатор : 3
Формат : AC-3
Формат/Информация : Audio Coding 3
Коммерческое название : Dolby Digital
Идентификатор кодека : A_AC3
Продолжительность : 1 ч. 20 м.
Вид битрейта : Постоянный
Битрейт : 448 Кбит/сек
Каналы : 6 каналов
Channel layout : L R C LFE Ls Rs
Частота : 48,0 КГц
Частота кадров : 31,250 кадров/сек (1536 SPF)
Битовая глубина : 16 бит
Метод сжатия : С потерями
Размер потока : 257 Мбайт (6%)
Заголовок : Original | DD 5.1 @ 448 kbps
Язык : English
Service kind : Complete Main
Default : Нет
Forced : Нет

Текст #1
Идентификатор : 4
Формат : UTF-8
Идентификатор кодека : S_TEXT/UTF8
Идентификатор кодека/Информация : UTF-8 Plain Text
Заголовок : Forced
Язык : Russian
Default : Да
Forced : Нет

Текст #2
Идентификатор : 5
Формат : UTF-8
Идентификатор кодека : S_TEXT/UTF8
Идентификатор кодека/Информация : UTF-8 Plain Text
Заголовок : Netflix
Язык : Russian
Default : Нет
Forced : Нет

Текст #3
Идентификатор : 6
Формат : UTF-8
Идентификатор кодека : S_TEXT/UTF8
Идентификатор кодека/Информация : UTF-8 Plain Text
Заголовок : Full
Язык : Russian
Default : Нет
Forced : Нет

Текст #4
Идентификатор : 7
Формат : UTF-8
Идентификатор кодека : S_TEXT/UTF8
Идентификатор кодека/Информация : UTF-8 Plain Text
Заголовок : Full
Язык : English
Default : Нет
Forced : Нет

Текст #5
Идентификатор : 8
Формат : UTF-8
Идентификатор кодека : S_TEXT/UTF8
Идентификатор кодека/Информация : UTF-8 Plain Text
Заголовок : SDH
Язык : English
Default : Нет
Forced : Нет

Меню
00:00:00.000 : en:Chapter 01
00:06:59.711 : en:Chapter 02
00:11:56.799 : en:Chapter 03
00:21:23.282 : en:Chapter 04
00:28:27.706 : en:Chapter 05
00:34:50.797 : en:Chapter 06
00:40:30.970 : en:Chapter 07
00:46:49.724 : en:Chapter 08
00:55:24.446 : en:Chapter 09
01:02:23.323 : en:Chapter 10
01:11:04.635 : en:Chapter 11
01:16:51.607 : en:Chapter 12

pb.wtf



Скачать Фантастические Грибы через торрент https://i3.imageban.ru/out/2022/02/02/d0e8958bad44ee13860d0a5be142a6a3.png Скачать, смотреть онлайн Фантастические Грибы бесплантно в хорошем качестве Описание: Фантастические Грибы - замедленное путешествие в волшебный, таинственный и целебный мир грибов и их роль в восстановлении жизни ... 10 10 3
Торрент: Зарегистрирован [2022-02-02 11:12] · скачан: 49 раз
Статус: √ проверено
Размер: 4.52 GB
Как cкачать? Как скачать Фантастические Грибы через торрент | UTorrent

% Раздел Тема Автор DL S | L
Научно-популярные фильмы [ 8.34 GB ] Фантастические Грибы / Fantastic Fungi [2019 Документальный BDRip 1080p] DVO [Netflix] bober100 Скачать
1 | 0

28-11-2019 20:33  

Отключить вcю реклaмy на сайте

    Дорогой пользователь! Огромная просьба, поблагодарите релизера, оцените раздачу и оставьте свои комментарий, если Вы скачали Фантастические Грибы через торрент бесплатно!
    Комментировать посты могут только пользователи прошедшие не сложную регистрацию
    Показать сообщения:    

    Фантастические Грибы через торрент
    Скачать бесплатно Фантастические Грибы
    Фантастические Грибы скачать торрент
    Фантастические Грибы смотреть онлайн
    Cкачать фильм Фантастические Грибы бесплатно
    Фантастические Грибы скачать торрент в хорошем качестве
    Фантастические Грибы смотреть онлайн бесплатно в хорошем качестве


    Вы не можете начинать темы
    Вы не можете отвечать на сообщения
    Вы не можете редактировать свои сообщения
    Вы не можете удалять свои сообщения
    Вы не можете голосовать в опросах
    Вы не можете прикреплять файлы к сообщениям
    Вы можете скачивать файлы