Доктор Стрэндж

Лицензия

Добыча

Дубляж

Уэнсдэй

1 сезон

Тор

Дубляж

В эфире

Дубляж

Там, где раки поют

MVO

Властелин колец

1 сезон

Deluxe

pack

Рекомендуем

30

Пиратка

ВАЖНО

ВАЖНО

Ghostwire

Пиратка

jed

RePack

nioh2

RePack

RDR2

RePack

NEED FOR SPEED™ PAYBACK

RePack

скачать торрент

Кинопоиск HD

Острые козырьки 6 сезон

6 сезон

FAR CRY 6

RePack

скачать торрент

Лицензия

скачать торрент

MVO

1

1 сезон

скачать торрент

1 сезон

скачать торрент

Лицензия

  

Сирано / Cyrano (Джо Райт) [2021, мюзикл, драма, мелодрама, SCREENER 720p] [MVO] (HDRezka)

Сирано через торрент pb.wtf

Размер: 1.69 GB | Добавлен: 10 мес. назад | Торрент скачан:55 раз
Смотреть онлайн | Скачать   

03-02-2022 09:54 Сирано Скачать торрент  

Сирано / Cyrano

✦ Год выпуска: 2021
✦ Страна: Великобритания, США, Канада
✦ Жанр: мюзикл, драма, мелодрама
✦ Продолжительность: 02:02:02
✦ Перевод: Профессиональный (многоголосый закадровый) HDRezka
✦ Субтитры: русские (forced)

✦ Режиссер: Джо Райт

✦ В ролях: Питер Динклэйдж, Хейли Беннетт, Келвин Харрисон, Бен Мендельсон, Моника Долан, Башир Салахуддин, Джошуа Джеймс, Аньяна Васан, Рут Шин, Глен Хансард

✦ Описание: Сирано де Бержерак — человек, опередивший свое время — одинаково искусен в словесных и фехтовальных поединках. Убежденный в том, что изъяны внешности делают его недостойным любви преданной подруги, блистательной Роксаны, он не рискует открыть ей свои чувства, а Роксана, тем временем, влюбляется с первого взгляда в Кристиана.

rating

***Премьера в Росcии - 24 февраля 2022, «UPI»

✦ Качество: SCReener 720p
✦ Формат: MKV
✦ Видео: AVC, 1280x544, 1 749 Кбит/с
✦ Аудио: AC3, 48.0 kHz, 2 ch, 192 kb/s
скриншот  скриншот  скриншот  скриншот  скриншот  скриншот  скриншот  

General
Unique ID : 206614615809894454910430304073360900412 (0x9B70870DC144F8B08E032BB9594C813C)
Complete name : G:\Cyrano.2022.SCreener.720p.[MVO] (HDRezka).xz.mkv
Format : Matroska
Format version : Version 4
File size : 1.69 GiB
Duration : 2 h 2 min
Overall bit rate mode : Variable
Overall bit rate : 1 980 kb/s
Movie name : Cyrano.2022.SCreener.720p.[MVO] (HDRezka).xz
Encoded date : UTC 2022-02-03 09:47:33
Writing application : mkvmerge v6.1.0 ('Old Devil') built on Mar 2 2013 14:32:37
Writing library : libebml v1.3.0 + libmatroska v1.4.0

Video
ID : 1
Format : AVC
Format/Info : Advanced Video Codec
Format profile : [email protected]
Format settings : CABAC / 1 Ref Frames
Format settings, CABAC : Yes
Format settings, Reference : 1 frame
Codec ID : V_MPEG4/ISO/AVC
Duration : 2 h 2 min
Bit rate mode : Variable
Bit rate : 1 749 kb/s
Maximum bit rate : 2 000 kb/s
Width : 1 280 pixels
Height : 544 pixels
Display aspect ratio : 2.35:1
Frame rate mode : Constant
Frame rate : 30.303 FPS
Color space : YUV
Chroma subsampling : 4:2:0
Bit depth : 8 bits
Scan type : Progressive
Bits/(Pixel*Frame) : 0.083
Stream size : 1.49 GiB (88%)
Title : Cyrano.2022.SCreener.720p.[MVO] (HDRezka).xz
Default : Yes
Forced : No
Statistics Tags Issue : mkvmerge v28.2.0 ('The Awakening') 64-bit 2022-02-03 03:00:19 / mkvmerge v6.1.0 ('Old Devil') built on Mar 2 2013 14:32:37 2022-02-03 09:47:33
FromStats_BitRate : 1786112
FromStats_Duration : 02:02:10.561000000
FromStats_FrameCount : 222138
FromStats_StreamSize : 1636650379
Duration_Source : General_Duration

Audio
ID : 2
Format : AC-3
Format/Info : Audio Coding 3
Commercial name : Dolby Digital
Codec ID : A_AC3
Duration : 2 h 2 min
Bit rate mode : Constant
Bit rate : 192 kb/s
Channel(s) : 2 channels
Channel layout : L R
Sampling rate : 48.0 kHz
Frame rate : 31.250 FPS (1536 SPF)
Compression mode : Lossy
Stream size : 168 MiB (10%)
Title : HDRezka
Language : Russian
Service kind : Complete Main
Default : Yes
Forced : No
Duration_Source : General_Duration

Text
ID : 3
Format : UTF-8
Codec ID : S_TEXT/UTF8
Codec ID/Info : UTF-8 Plain Text
Title : rus (forced)
Language : Russian
Default : No
Forced : No
Statistics Tags Issue : mkvmerge v28.2.0 ('The Awakening') 64-bit 2022-02-03 03:00:19 / mkvmerge v6.1.0 ('Old Devil') built on Mar 2 2013 14:32:37 2022-02-03 09:47:33
FromStats_BitRate : 27
FromStats_Duration : 01:52:48.160000000
FromStats_FrameCount : 442
FromStats_StreamSize : 23117



Скачать Сирано через торрент https://i2-imageban-ru.translate.goog/out/2022/02/03/ba002a468c54343f823a968bc609f224.jpg Скачать, смотреть онлайн Сирано бесплантно в хорошем качестве Описание: Сирано де Бержерак — человек, опередивший свое время — одинаково искусен в словесных и фехтовальных поединках. Убежденный в том, ... 10 10 5
Торрент: Зарегистрирован [2022-02-03 09:54] · скачан: 55 раз
Статус: T временная
Размер: 1.69 GB
Как cкачать? Как скачать Сирано через торрент | UTorrent

% Раздел Тема Автор DL S | L
Фильмы [HD 720p, 1080p] (Хороший звук DUB, MVO) [ 7.83 GB ] Сирано / Cyrano | Пифагор От Generalfilm | 1080p White Smoke Скачать
2 | 0
Фильмы (Blu-ray, BD-Remux, HDDVD) [ 32.51 GB ] Сирано / Cyrano | Пифагор | BD Remux 1080p bober100 Скачать
2 | 0
Фильмы [HD 720p, 1080p] (Хороший звук DUB, MVO) [ 6.17 GB ] Сирано / Cyrano | Пифагор | 720p bober100 Скачать
1 | 0
Фильмы 2021 [DVDrip, WEB-DLRip, HDrip] (DUB, MVO) [ 1.45 GB ] Сирано / Cyrano | Пифагор | BDRip bober100 Скачать
4 | 0
Фильмы [HD 720p, 1080p] (Хороший звук DUB, MVO) [ 13.04 GB ] Сирано / Cyrano | Пифагор | 1080p bober100 Скачать
1 | 0
Фильмы 2021 [DVDrip, WEB-DLRip, HDrip] (DUB, MVO) [ 1.46 GB ] Сирано / Cyrano | HDRezka Studio | DLRip bober100 Скачать
1 | 0

28-11-2019 20:33  


Отключить вcю реклaмy на сайте, в т.ч. и в плеере онлайн просмотра!

03-02-2022 15:27 Сирано Скачать торрент  

и кто из этих двух на афише - Сирано???..что карлик из Игры Престолов что-ли..бедняга
Kkillermax2013 писал(а):


не карлик а человек невысокого роста



    Дорогой пользователь! Огромная просьба, поблагодарите релизера, оцените раздачу и оставьте свои комментарий, если Вы скачали Сирано через торрент бесплатно!!
    Комментировать посты могут только пользователи прошедшие не сложную регистрацию
    Показать сообщения:    


    Сирано через торрент
    Скачать бесплатно Сирано
    Сирано скачать торрент
    Сирано смотреть онлайн
    Cкачать фильм Сирано бесплатно
    Сирано скачать торрент в хорошем качестве
    Сирано смотреть онлайн бесплатно в хорошем качестве
    Вы не можете начинать темы
    Вы не можете отвечать на сообщения
    Вы не можете редактировать свои сообщения
    Вы не можете удалять свои сообщения
    Вы не можете голосовать в опросах
    Вы не можете прикреплять файлы к сообщениям
    Вы можете скачивать файлы
    Сирано / Cyrano [2021, мюзикл, драма, мелодрама, SCREENER 720p] [MVO] смотреть онлайн, скачать торрент picoco.icu