Доктор Стрэндж

Лицензия

Добыча

Дубляж

Уэнсдэй

1 сезон

Тор

Дубляж

В эфире

Дубляж

Там, где раки поют

MVO

Властелин колец

1 сезон

Deluxe

pack

Рекомендуем

30

Пиратка

ВАЖНО

ВАЖНО

Ghostwire

Пиратка

jed

RePack

nioh2

RePack

RDR2

RePack

NEED FOR SPEED™ PAYBACK

RePack

скачать торрент

Кинопоиск HD

Острые козырьки 6 сезон

6 сезон

FAR CRY 6

RePack

скачать торрент

Лицензия

скачать торрент

MVO

1

1 сезон

скачать торрент

1 сезон

скачать торрент

Лицензия

  

Лига монстров / Rumble (Хамиш Грив) [2021, мультфильм, фэнтези, комедия, приключения, семейный, спорт, полномтеражный, WEB-DLRip-AVC] Дубляж [iTunes] от ExKinoRay

Лига монстров через торрент pb.wtf

Размер: 2.04 GB | Добавлен: 9 мес. назад | Торрент скачан:169 раз
Смотреть онлайн | Скачать   

05-02-2022 19:46 Лига монстров Скачать торрент  


Лига монстров / Rumble
Название: Лига монстров
Оригинальное название: Rumble
Год выхода: 2021
Жанр: мультфильм, фэнтези, комедия, приключения, семейный, спорт, полномтеражный
Режиссер: Хамиш Грив

В ролях: Уилл Арнетт, Терри Крюс, Джеральдин Вишванатан, Джо Аноаи, Тони Данза, Бен Шварц, Джимми Татро, Фред Меламед, Бриджет Эверетт, Карлос Гомес

Описание: В мире, где монстрический реслинг – обожаемый вид спорта, а монстры-спортсмены – настоящие звезды, девушка Винни мечтает пойти по стопам отца и начинает тренировать монстра-аутсайдера. Милашке-неудачнику предстоит пройти непростой путь под руководством юной, но суровой наставницы, чтобы стать чемпионом.



Страна: США, Австралия, Канада
Студия: Paramount Animation, Paramount Pictures, Reel FX Creative Studios, Walden Media, WWE Studios
Продолжительность: 01:34:53
Перевод: Дублированный - iTunes



Информация о файле:
Кодек: AVC
Формат: MKV
Качество: WEB-DLRip-AVC
Видео: MPEG-4 AVC, 1024x426, 24.000 fps, 2250 kb/s
Аудио RU: AC3, 6 ch, 48 kHz, 384 kbps
Аудио EN: AC3, 6 ch, 48 kHz, 448 kbps
Субтитры: Русские (Forced, full), английские

семпл
x264 info: frame I:1226 Avg QP:17.19 size: 58977
x264 info: frame P:40234 Avg QP:19.15 size: 22537
x264 info: frame B:95171 Avg QP:21.23 size: 6482
x264 info: consecutive B-frames: 5.4% 6.7% 14.9% 50.7% 9.5% 9.4% 1.8% 0.9% 0.3% 0.1% 0.2%
General
Unique ID : 58499004516914791577073316049763799430 (0x2C027F9A861BE8FC3D1C8AD1A9459186)
Complete name : D:uTorrentРипы wolf1245Rumble.2021.Дубляж.iTunes.WEB-DLRip-AVC.[wolf1245.ExKinoRay].mkv
Format : Matroska
Format version : Version 4
File size : 2.04 GiB
Duration : 1 h 34 min
Overall bit rate : 3 084 kb/s
Movie name : Rumble.2021.Дубляж.iTunes.WEB-DLRip-AVC.[wolf1245.ExKinoRay]
Encoded date : UTC 2022-02-05 19:34:04
Writing application : mkvmerge v64.0.0 ('Willows') 64-bit
Writing library : libebml v1.4.2 + libmatroska v1.6.4
Video
ID : 1
Format : AVC
Format/Info : Advanced Video Codec
Format profile : [email protected]
Format settings : CABAC / 12 Ref Frames
Format settings, CABAC : Yes
Format settings, Reference frames : 12 frames
Codec ID : V_MPEG4/ISO/AVC
Duration : 1 h 34 min
Bit rate : 2 250 kb/s
Width : 1 024 pixels
Height : 426 pixels
Display aspect ratio : 2.40:1
Frame rate mode : Constant
Frame rate : 24.000 FPS
Color space : YUV
Chroma subsampling : 4:2:0
Bit depth : 8 bits
Scan type : Progressive
Bits/(Pixel*Frame) : 0.215
Stream size : 1.49 GiB (73%)
Title : -=[wolf1245.ExKinoRay]=-
Writing library : x264 core 163 r3060 5db6aa6
Encoding settings : cabac=1 / ref=12 / deblock=1:-3:-2 / analyse=0x3:0x133 / me=umh / subme=9 / psy=1 / psy_rd=1.02:0.15 / mixed_ref=1 / me_range=32 / chroma_me=1 / trellis=2 / 8x8dct=1 / cqm=0 / deadzone=21,11 / fast_pskip=1 / chroma_qp_offset=-3 / threads=10 / lookahead_threads=2 / sliced_threads=0 / nr=0 / decimate=0 / interlaced=0 / bluray_compat=0 / constrained_intra=0 / bframes=10 / b_pyramid=2 / b_adapt=2 / b_bias=0 / direct=3 / weightb=1 / open_gop=0 / weightp=2 / keyint=240 / keyint_min=24 / scenecut=40 / intra_refresh=0 / rc_lookahead=60 / rc=2pass / mbtree=0 / bitrate=2250 / ratetol=1.0 / qcomp=0.60 / qpmin=0 / qpmax=69 / qpstep=4 / cplxblur=20.0 / qblur=0.5 / vbv_maxrate=50000 / vbv_bufsize=62500 / nal_hrd=none / filler=0 / ip_ratio=1.40 / pb_ratio=1.30 / aq=2:0.90
Language : English
Default : Yes
Forced : No
Color range : Limited
Color primaries : BT.709
Transfer characteristics : BT.709
Matrix coefficients : BT.709
Audio #1
ID : 2
Format : AC-3
Format/Info : Audio Coding 3
Commercial name : Dolby Digital
Codec ID : A_AC3
Duration : 1 h 34 min
Bit rate mode : Constant
Bit rate : 384 kb/s
Channel(s) : 6 channels
Channel layout : L R C LFE Ls Rs
Sampling rate : 48.0 kHz
Frame rate : 31.250 FPS (1536 SPF)
Compression mode : Lossy
Stream size : 261 MiB (12%)
Title : Дубляж | iTunes | RUS
Language : Russian
Service kind : Complete Main
Default : Yes
Forced : Yes
Audio #2
ID : 3
Format : AC-3
Format/Info : Audio Coding 3
Commercial name : Dolby Digital
Codec ID : A_AC3
Duration : 1 h 34 min
Bit rate mode : Constant
Bit rate : 448 kb/s
Channel(s) : 6 channels
Channel layout : L R C LFE Ls Rs
Sampling rate : 48.0 kHz
Frame rate : 31.250 FPS (1536 SPF)
Compression mode : Lossy
Stream size : 304 MiB (15%)
Title : Original | ENG
Language : English
Service kind : Complete Main
Default : Yes
Forced : No
Text #1
ID : 4
Format : UTF-8
Codec ID : S_TEXT/UTF8
Codec ID/Info : UTF-8 Plain Text
Duration : 1 h 32 min
Bit rate : 2 b/s
Count of elements : 44
Stream size : 1.77 KiB (0%)
Title : Forced
Language : Russian
Default : Yes
Forced : Yes
Text #2
ID : 5
Format : UTF-8
Codec ID : S_TEXT/UTF8
Codec ID/Info : UTF-8 Plain Text
Duration : 1 h 33 min
Bit rate : 116 b/s
Count of elements : 1400
Stream size : 79.9 KiB (0%)
Title : Full
Language : Russian
Default : No
Forced : No
Text #3
ID : 6
Format : UTF-8
Codec ID : S_TEXT/UTF8
Codec ID/Info : UTF-8 Plain Text
Duration : 1 h 31 min
Bit rate : 83 b/s
Count of elements : 1633
Stream size : 55.8 KiB (0%)
Title : English
Language : English
Default : No
Forced : No
Релиз от: VK релиз-группы




Скачать Лига монстров через торрент https://i116.fastpic.org/big/2022/0105/b2/d90cbd1f30130b7fb46fd271959ed3b2.jpg Скачать, смотреть онлайн Лига монстров бесплантно в хорошем качестве Описание: В мире, где монстрический реслинг – обожаемый вид спорта, а монстры-спортсмены – настоящие звезды, девушка Винни мечтает пойти ... 10 10 5
Торрент: Зарегистрирован [2022-02-05 19:46] · скачан: 169 раз
Статус: √ проверено
Размер: 2.04 GB
Как cкачать? Как скачать Лига монстров через торрент | UTorrent

% Раздел Тема Автор DL S | L
T Иностранные мультфильмы [ 1.46 GB ] Лига монстров / Rumble | IVI | DLRip Twi7ter Скачать
10 | 0
T Зарубежные Мультфильмы (WEB-DL 720p, 1080p) [ 1.63 GB ] Лига монстров / Rumble | IVI | 1080p killermax2013 Скачать
8 | 0
Иностранные мультфильмы [ 1.46 GB ] Лига монстров / Rumble | iTunes | DLRip bober100 Скачать
3 | 0
Зарубежные Мультфильмы (WEB-DL 720p, 1080p) [ 5.93 GB ] Лига монстров / Rumble | iTunes | 1080p bober100 Скачать
1 | 0

28-11-2019 20:33  


Отключить вcю реклaмy на сайте, в т.ч. и в плеере онлайн просмотра!

    Дорогой пользователь! Огромная просьба, поблагодарите релизера, оцените раздачу и оставьте свои комментарий, если Вы скачали Лига монстров через торрент бесплатно!!
    Комментировать посты могут только пользователи прошедшие не сложную регистрацию
    Показать сообщения:    


    Лига монстров через торрент
    Скачать бесплатно Лига монстров
    Лига монстров скачать торрент
    Лига монстров смотреть онлайн
    Cкачать фильм Лига монстров бесплатно
    Лига монстров скачать торрент в хорошем качестве
    Лига монстров смотреть онлайн бесплатно в хорошем качестве
    Вы не можете начинать темы
    Вы не можете отвечать на сообщения
    Вы не можете редактировать свои сообщения
    Вы не можете удалять свои сообщения
    Вы не можете голосовать в опросах
    Вы не можете прикреплять файлы к сообщениям
    Вы можете скачивать файлы
    Лига монстров / Rumble [2021, мультфильм, фэнтези, комедия, приключения, семейный, спорт, полномтеражный, WEB-DLRip-AVC] Дубляж [iTunes] от ExKinoRay смотреть онлайн, скачать торрент picoco.icu