Доктор Стрэндж

Лицензия

Добыча

Дубляж

Дом дракона

1 сезон

Тор

Дубляж

В эфире

Дубляж

Там, где раки поют

MVO

Властелин колец

1 сезон

GLOBAL

pack

Рекомендуем

30

Пиратка

ВАЖНО

ВАЖНО

Ghostwire

Пиратка

jed

RePack

nioh2

RePack

RDR2

RePack

NEED FOR SPEED™ PAYBACK

RePack

скачать торрент

Кинопоиск HD

Острые козырьки 6 сезон

6 сезон

FAR CRY 6

RePack

скачать торрент

Лицензия

скачать торрент

MVO

1

1 сезон

скачать торрент

1 сезон

скачать торрент

Лицензия

  

Дети шпионов 3: Игра окончена в 3Д / Spy Kids 3-D: Game Over 3D (Роберт Родригес / Robert Rodriguez) [2003, Фантастика, приключения, комедия, Семейный, BDRip, 1080p] OverUnder / Вертикальная стереопара

Дети шпионов 3: Игра окончена в 3Д через торрент pb.wtf

Раздают: 1 [ 0 KB/s ]
Размер: 18.25 GB | Добавлен: 9 мес. назад | Торрент скачан:3 раза
Смотреть онлайн | Скачать   

14-02-2022 10:41 Дети шпионов 3: Игра окончена в 3Д Скачать торрент  

Дети шпионов 3: Игра окончена / Spy Kids 3-D: Game Over

Год выпуска: 2003
Страна: США (Dimension Films, Troublemaker Studios)
Жанр: Фантастика, Приключения, Комедия, Семейный
Продолжительность: 01:24:22

Перевод: Профессиональный (дублированный)
Русские субтитры: нет
Режиссер на русском: Роберт Родригес / Robert Rodriguez

В ролях: Антонио Бандерас, Карла Гуджино, Алекса Вега, Дэрил Сабара, Рикардо Монтальбан, Холланд Тейлор, Сильвестр Сталлоне, Майк Джадж, Сальма Хайек, Мэтью О’Лири, Эмили Осмент, Райан Пинкстон, Роберт Вито, Бобби Эднер, Кортни Джайнс, Чич Марин, Дэнни Трехо, Алан Камминг, Тони Шэлоуб, Стив Бушеми, Билл Пэкстон, Джордж Клуни, Элайджа Вуд, Селена Гомеc, Ивэн Сабара, Камилль Чен, Стив Вертхеймер, Алехандро Розе-Гарсия, Лэйн Терни, Глен Пауэлл мл., Боб Фонсека, Питер Марквардт, Джеймс Пэкстон

Описание: Шпионы становятся старше, но и враги — все сильнее и изощреннее. Теперь им предстоит вступить в схватку с самим Сильвестром Сталлоне, чтобы спасти не только свои жизни, но и целый мир…
Несовершеннолетние агенты Джуни и Кармен Кортез отправляются на выполнение нового задания. На этот раз их ждет путешествие по виртуальному миру 3D видеоигры, разработанной для того, чтобы существа, населяющие ее явились в реальный мир.
Дочь шпионов Кармен попалась в сети компьютерной игры, созданной зловещим Мастером Игрушек. Теперь ее брат должен спасти сестру, а заодно и весь мир. И помогать ему в этом будут его родители!

Сэмпл: http://sendfile.su/1637509

Качество: BDrip, 1080p
Контейнер: MKV
Формат 3D: OverUnder / Вертикальная стереопара
Порядок ракурсов: левый ракурс первый
Видео кодек: x264
Аудио кодек: AC3
Видео: AVC / [email protected] / 23,976 fps / 1920х2160 / 27,5 Мбит/сек
Аудио: Русский / DTS / 48 KHz / 5.1 ch / 768 Кбит/сек
Аудио 2: Английский / AC3 / 48 KHz / 5.1 ch / 640 Кбит/сек
~ 01:10:38 - 01:10:44 - перепутаны ракурсы (6 сек) (исправлено);
~ 01:10:46 - 01:10:49 - перепутаны ракурсы (3 сек) (исправлено);
~ 01:11:01 - на правом роботе перспектива в обратную сторону, на левом - в правильную);
~ 01:11:48 - робот "парИт" над мостовой;
~ 01:14:56 - 01:14:59 - на основной картинке перспектива в обратную сторону, вылетающие винты и пружина - в правильной перспективе (3 сек);
~ 01:15:55 - 01:15:59 - временнОй рассинхрон ракурсов (4 сек) (исправлено).


ВНИМАНИЕ ! На встроенных ТВ-плеерах работать не будет!!!

ТВ Samsung в названии которого есть надпись Ultra HD , и LG Ultra HD 800 серии, LG C6P, Xiaomi Mi TV 2, GRUNDIG VLE 8474 BL, Samsung UE48H6200AK, SUPRA STV-LC42ST960UL00 воспроизводят полные стереопары встроенными плеерами
Железные плееры на которых воспроизводятся полные стереопары:Popcorn C-200, Popcorn a-400, Dune HD Smart D1 , Dune HD DUO , Dune HD Smart H1 , Dune HD Smart B1 , Dune HD Max , Dune HD TV-303D, Dune HD TV-102, Dune HD Base 3D, Philips HMP7001, Aura HD, MECOOL BB2, Zidoo x9s, Lake I Cloud, MiBox 3
Чтобы изображение было на весь экран в плеере выставляем, если рип 1920х1600 - то выставляем 2.35:1 , если 1920х2160 - то выставляем 16:9
Общее
Уникальный идентификатор : 242914239406967179304695388899130361448 (0xB6BF94ACA26BECEA8654F5EF410A4668)
Полное имя : E:\видео\Spy Kids 3-D Game Over.Rip by SeRoGa00.mkv
Формат : Matroska
Версия формата : Version 2
Размер файла : 18,2 Гбайт
Продолжительность : 1 ч. 28 м.
Общий поток : 29,5 Мбит/сек
Дата кодирования : UTC 2022-01-30 15:38:08
Программа кодирования : mkvmerge v4.9.1 ('Ich will') сборка от Jul 11 2011 23:53:15
Библиотека кодирования : libebml v1.2.1 + libmatroska v1.1.1

Видео
Идентификатор : 1
Формат : AVC
Формат/Информация : Advanced Video Codec
Профиль формата : [email protected]
Параметр CABAC формата : Да
Параметр ReFrames формата : 4 кадра
Идентификатор кодека : V_MPEG4/ISO/AVC
Продолжительность : 1 ч. 28 м.
Битрейт : 27,5 Мбит/сек
Ширина : 1920 пикселей
Высота : 2160 пикселей
Соотношение сторон : 0,889
Частота кадров : 23,976 кадра/сек
Цветовое пространство : YUV
Субдискретизация насыщенности : 4:2:0
Битовая глубина : 8 бит
Тип развёртки : Прогрессивная
Бит/(Пиксели*Кадры) : 0.277
Размер потока : 17,0 Гбайт (93%)
Заголовок : Rip by SeRoGa00
Библиотека кодирования : x264 core 157 r2969 d4099dd
Настройки программы : cabac=1 / ref=4 / deblock=1:-3:-3 / analyse=0x3:0x113 / me=umh / subme=10 / psy=1 / psy_rd=1.00:0.15 / mixed_ref=1 / me_range=24 / chroma_me=1 / trellis=2 / 8x8dct=1 / cqm=0 / deadzone=21,11 / fast_pskip=1 / chroma_qp_offset=-3 / threads=12 / lookahead_threads=6 / sliced_threads=0 / nr=0 / decimate=0 / interlaced=0 / bluray_compat=0 / constrained_intra=0 / bframes=10 / b_pyramid=2 / b_adapt=2 / b_bias=0 / direct=3 / weightb=1 / open_gop=0 / weightp=2 / keyint=250 / keyint_min=23 / scenecut=40 / intra_refresh=0 / rc_lookahead=60 / rc=crf / mbtree=1 / crf=16.5 / qcomp=0.60 / qpmin=10 / qpmax=69 / qpstep=4 / vbv_maxrate=40000 / vbv_bufsize=40000 / crf_max=0.0 / nal_hrd=none / filler=0 / ip_ratio=1.40 / aq=1:1.00
Язык : English
Default : Да
Forced : Нет

Аудио #1
Идентификатор : 2
Формат : DTS
Формат/Информация : Digital Theater Systems
Идентификатор кодека : A_DTS
Продолжительность : 1 ч. 28 м.
Вид битрейта : Постоянный
Битрейт : 768 Кбит/сек
Каналы : 6 каналов
Расположение каналов : Front: L C R, Side: L R, LFE
Частота : 48,0 КГц
Битовая глубина : 24 бит
Метод сжатия : С потерями
Размер потока : 478 Мбайт (3%)
Язык : Russian
Default : Да
Forced : Нет

Аудио #2
Идентификатор : 3
Формат : AC-3
Формат/Информация : Audio Coding 3
Расширение режима : CM (complete main)
Параметр Endianness формата : Big
Идентификатор кодека : A_AC3
Продолжительность : 1 ч. 28 м.
Вид битрейта : Постоянный
Битрейт : 640 Кбит/сек
Каналы : 6 каналов
Расположение каналов : Front: L C R, Side: L R, LFE
Частота : 48,0 КГц
Битовая глубина : 16 бит
Метод сжатия : С потерями
Размер потока : 406 Мбайт (2%)
Язык : English
Default : Нет
Forced : Нет
скриншот  

скриншот  

скриншот  

скриншот  

скриншот  

скриншот  

скриншот  

скриншот  



Скачать Дети шпионов 3: Игра окончена в 3Д через торрент https://d.radikal.ru/d07/2202/06/c83f9bde4dbe.png Скачать, смотреть онлайн Дети шпионов 3: Игра окончена в 3Д бесплантно в хорошем качестве Описание: Шпионы становятся старше, но и враги — все сильнее и изощреннее. Теперь им предстоит вступить в схватку с самим Сильвестром ... 5 10 1
Торрент: Зарегистрирован [2022-02-14 10:41] · скачан: 3 раз
Статус: √ проверено
Размер: 18.25 GB
Как cкачать? Как скачать Дети шпионов 3: Игра окончена в 3Д через торрент | UTorrent

28-11-2019 20:33  


Отключить вcю реклaмy на сайте, в т.ч. и в плеере онлайн просмотра!

    Дорогой пользователь! Огромная просьба, поблагодарите релизера, оцените раздачу и оставьте свои комментарий, если Вы скачали Дети шпионов 3: Игра окончена в 3Д через торрент бесплатно!!
    Комментировать посты могут только пользователи прошедшие не сложную регистрацию
    Показать сообщения:    


    Дети шпионов 3: Игра окончена в 3Д через торрент
    Скачать бесплатно Дети шпионов 3: Игра окончена в 3Д
    Дети шпионов 3: Игра окончена в 3Д скачать торрент
    Дети шпионов 3: Игра окончена в 3Д смотреть онлайн
    Cкачать фильм Дети шпионов 3: Игра окончена в 3Д бесплатно
    Дети шпионов 3: Игра окончена в 3Д скачать торрент в хорошем качестве
    Дети шпионов 3: Игра окончена в 3Д смотреть онлайн бесплатно в хорошем качестве
    Вы не можете начинать темы
    Вы не можете отвечать на сообщения
    Вы не можете редактировать свои сообщения
    Вы не можете удалять свои сообщения
    Вы не можете голосовать в опросах
    Вы не можете прикреплять файлы к сообщениям
    Вы можете скачивать файлы
    Дети шпионов 3: Игра окончена в 3Д / Spy Kids 3-D: Game Over 3D [2003, Фантастика, приключения, комедия, Семейный, BDRip, 1080p] OverUnder / Вертикальная стереопара смотреть онлайн, скачать торрент picoco.icu