Всегда рабочее зеркало без VPN и Proxy просто перед .vidak.icu напиши любое слово или цифру, Пример http://domd.vidak.icu

MVO

MVO

1 сезон

1

1 сезон

iTunes

1 сезон

13

1 сезон

Deluxe

pack

Рекомендуем

Repack

30

ВАЖНО

RePack

MK11

RePack

jed

RePack

fifa19

RePack

RDR2

RePack

NEED FOR SPEED™ PAYBACK

Кинопоиск HD

6 сезон

 Острые козырьки 6 сезон

Все сериалы

все сериалы на PB.wtf

RePack

FAR CRY 5
  
Magnet ссылка

Миротворец / Peacemaker / Сезон: 1 / Серии: 1-8 из 8 (Джеймс Ганн, Брэд Андерсон) [2022, Фантастика, фэнтези, боевик, комедия, криминал, приключения, WEB-DLR 720p] MVO [LostFilm] pb.wtf

Миротворец через торрент pb.wtf

Размер: 10.08 GB | Добавлен: 5 мес. 15 д. назад | Торрент скачан:170 раз
Смотреть онлайн Миротворец | Скачать    Ребята, помогите собрать деньги на оплату серверов!!!

20-02-2022 03:51 Миротворец Скачать торрент  

Миротворец | Peacemaker
«Give Peace a F#cking Chance»
Год выпуска: 2022
Страна: США
Выпущено: DC Entertainment, Safran Company, The, Troll Court Entertainment, Warner Bros. Television
Премьера (мир): 13 января 2022
Жанр: Фантастика, фэнтези, боевик, комедия, криминал, приключения
Продолжительность: ~ 00:47:00 серия
Перевод: Профессиональный (многоголосый, закадровый) | LostFilm

Субтитры: Русские (Forced, Full), английские (Full, SDH)

Режиссер: Джеймс Ганн, Брэд Андерсон

rating

В ролях: Джон Сина (John Cena), Даниэль Брукс (Danielle Brooks), Фредди Строма (Freddie Stroma), Чаквуди Ивуджи (Chukwudi Iwuji), Дженнифер Холлэнд (Jennifer Holland), Стив Эйджи (Steve Agee), Роберт Патрик (Robert Patrick), Локлин Манро (Lochlyn Munro), Элизабет Ладлоу (Elizabeth Faith Ludlow), Ризван Манжи (Rizwan Manji), Энни Чанг (Annie Chang), Нют Ле (Nhut Le)

Описание: Кристофера Смита (Джон Сина), более известного под псевдонимом Миротворец, подстрелили в шею, и на него упало здание. А еще Криса ждет горячий прием в тесной камере тюрьмы строгого режима Белль Рив, если он выживет, конечно. Но внезапно ему, зализавшему раны, дают просто уйти. Правда, ненадолго. Очень скоро его встречает новая команда аутсайдеров, попавших в тиски безжалостной Аманды Уоллер. Вцепившись в них, как бульдог в ляжку прохожего, она выдала очередному отряду под предводительством загадочного Клемсона Мёрна (Чаквуди Ивуджи) очередное суицидальное задание. Их цель — спящие агенты из засекреченного, а значит, опасного проекта «Бабочка». Чего хочет сам Миротворец, никого не волнует. Его отпускают только навестить папашу-реднека Огги (Роберт Патрик), недалекого и очень злобного неонациста, который не столько воспитывал, сколько травмировал сына. У него Крис забирает ультразвуковой шлем да своего единственного друга, милейшего орла Орлика, единственного, кто готов ради Миротворца и в бой, и в обнимашки. Будучи непроходимым тупицей, Смит за рекордное время вляпывается в неприятности. Ему даже не нужно разыскивать свою мишень — «бабочкой» оказывается девица из первого же бара. Кристофер едва уносит ноги и со скрипом понимает: не все в этом задании так уж прозрачно. А еще он впервые начинает сомневаться: может, крошить людей налево и направо — не лучший способ достижения мира?

Качество: WEB-DLR 720p
Формат: MKV

Видео: MPEG-4 AVC, ~ 3400 Кбит/с, 1280x720 at 23.976 fps
Аудио Rus: AC-3, 48 kHz, 2 ch, 384 kbps |LostFilm
Аудио Eng: AC-3, 48 kHz, 6 ch, 384 kbps |Original
скриншот  скриншот  скриншот  скриншот  скриншот  скриншот  

Общее
Уникальный идентификатор : 224582979595276722407057318277211369779 (0xA8F51BC94ACD1D548B532DA7EB8E3133)
Полное имя : D:\Peacemaker.2022.S01.720p.WEB-DL.LostFilm\Peacemaker.S01E01.720p.LostFilm.mkv
Формат : Matroska
Версия формата : Version 4
Размер файла : 1,35 Гбайт
Продолжительность : 46 м. 40 с.
Режим общего битрейта : Переменный
Общий поток : 4 152 Кбит/сек
Название фильма : Peacemaker S01E01 [A Whole New Whirled] - EniaHD
Дата кодирования : UTC 2022-01-16 02:07:36
Программа кодирования : mkvmerge v9.1.0 ('Little Earthquakes') 32bit
Библиотека кодирования : libebml v1.3.3 + libmatroska v1.4.4

Видео
Идентификатор : 7
Формат : AVC
Формат/Информация : Advanced Video Codec
Профиль формата : [email protected]
Настройки формата : CABAC / 4 Ref Frames
Параметр CABAC формата : Да
Параметр RefFrames формата : 4 кадра
Идентификатор кодека : V_MPEG4/ISO/AVC
Продолжительность : 46 м. 40 с.
Вид битрейта : Переменный
Битрейт : 3 400 Кбит/сек
Максимальный битрейт : 5 100 Кбит/сек
Ширина : 1 280 пикселей
Высота : 720 пикселей
Соотношение сторон : 16:9
Режим частоты кадров : Постоянный
Частота кадров : 23,976 (24000/1001) кадра/сек
Цветовое пространство : YUV
Субдискретизация насыщенности : 4:2:0
Битовая глубина : 8 бит
Тип развёртки : Прогрессивная
Бит/(Пиксели*Кадры) : 0.154
Размер потока : 1,10 Гбайт (81%)
Библиотека кодирования : x264 core 157 r2965 861cec4
Настройки программы : cabac=1 / ref=4 / deblock=1:0:0 / analyse=0x1:0x111 / me=hex / subme=7 / psy=1 / psy_rd=1.00:0.00 / mixed_ref=1 / me_range=16 / chroma_me=1 / trellis=1 / 8x8dct=0 / cqm=0 / deadzone=21,11 / fast_pskip=1 / chroma_qp_offset=-2 / threads=22 / lookahead_threads=3 / sliced_threads=0 / nr=0 / decimate=1 / interlaced=0 / bluray_compat=0 / constrained_intra=0 / bframes=3 / b_pyramid=2 / b_adapt=1 / b_bias=0 / direct=1 / weightb=1 / open_gop=0 / weightp=2 / keyint=96 / keyint_min=96 / scenecut=40 / intra_refresh=0 / rc_lookahead=40 / rc=2pass / mbtree=1 / bitrate=3400 / ratetol=1.0 / qcomp=0.60 / qpmin=0 / qpmax=69 / qpstep=4 / cplxblur=20.0 / qblur=0.5 / vbv_maxrate=5100 / vbv_bufsize=2550 / nal_hrd=vbr / filler=0 / ip_ratio=1.40 / aq=1:1.00
Default : Да
Forced : Нет
Цветовой диапазон : Limited
Основные цвета : BT.709
Характеристики трансфера : BT.709
Коэффициенты матрицы : BT.709

Аудио #1
Идентификатор : 1
Формат : AC-3
Формат/Информация : Audio Coding 3
Коммерческое название : Dolby Digital
Идентификатор кодека : A_AC3
Продолжительность : 46 м. 40 с.
Вид битрейта : Постоянный
Битрейт : 384 Кбит/сек
Каналы : 2 канала
Channel layout : L R
Частота : 48,0 КГц
Частота кадров : 31,250 кадров/сек (1536 SPF)
Метод сжатия : С потерями
Задержка видео : 30 мс.
Размер потока : 128 Мбайт (9%)
Заголовок : LF
Язык : Russian
Service kind : Complete Main
Default : Да
Forced : Нет

Аудио #2
Идентификатор : 2
Формат : AC-3
Формат/Информация : Audio Coding 3
Коммерческое название : Dolby Digital
Идентификатор кодека : A_AC3
Продолжительность : 46 м. 40 с.
Вид битрейта : Постоянный
Битрейт : 384 Кбит/сек
Каналы : 6 каналов
Channel layout : L R C LFE Ls Rs
Частота : 48,0 КГц
Частота кадров : 31,250 кадров/сек (1536 SPF)
Метод сжатия : С потерями
Размер потока : 128 Мбайт (9%)
Язык : English
Service kind : Complete Main
Default : Нет
Forced : Нет

Текст #1
Идентификатор : 3
Формат : UTF-8
Идентификатор кодека : S_TEXT/UTF8
Идентификатор кодека/Информация : UTF-8 Plain Text
Продолжительность : 41 м. 55 с.
Битрейт : 14 бит/сек
Count of elements : 71
Размер потока : 4,32 Кбайт (0%)
Заголовок : Forced
Язык : Russian
Default : Да
Forced : Нет

Текст #2
Идентификатор : 4
Формат : UTF-8
Идентификатор кодека : S_TEXT/UTF8
Идентификатор кодека/Информация : UTF-8 Plain Text
Продолжительность : 46 м. 21 с.
Битрейт : 96 бит/сек
Count of elements : 631
Размер потока : 32,8 Кбайт (0%)
Язык : Russian
Default : Нет
Forced : Нет

Текст #3
Идентификатор : 5
Формат : UTF-8
Идентификатор кодека : S_TEXT/UTF8
Идентификатор кодека/Информация : UTF-8 Plain Text
Продолжительность : 46 м. 21 с.
Битрейт : 86 бит/сек
Count of elements : 809
Размер потока : 29,4 Кбайт (0%)
Язык : English
Default : Нет
Forced : Нет

Текст #4
Идентификатор : 6
Формат : UTF-8
Идентификатор кодека : S_TEXT/UTF8
Идентификатор кодека/Информация : UTF-8 Plain Text
Продолжительность : 46 м. 21 с.
Битрейт : 102 бит/сек
Count of elements : 940
Размер потока : 34,9 Кбайт (0%)
Заголовок : SDH
Язык : English
Default : Нет
Forced : Нет

Когда раздача ведётся путём добавления новых серий, при каждом добавлении создётся новый торрент. Чтобы начать докачку новой серии, пользователям необходимо сделать следующее:
(1) остановить скачивание,
(2) удалить старый торрент у себя из клиента (старые серии удалять не надо),
(3) скачать новый торрент и запустить его у себя в клиенте вместо старого, при этом указать клиенту путь в старую папку, куда и должно происходить скачивание новых серий.
Ваш клиент при этом должен произвести хеширование (проверку) старой папки (если не производит сам - помогите ему сделать это), и будет докачивать только те серии, которых у вас ещё нет. Старые серии при этом не удаляются, а продолжают раздаваться!
Eсли вы уже удалили старые серии, то предотвратить повторную закачку старых серий можно, отжав галочку в соответсвующих местах при запуске нового торрента. По возможности, желательно не удалять старые серии как можно дольше, чтобы релизёр не столько продолжал раздавать старые серии, а смог сконцентрироваться на новых.

pb.wtf



Скачать Миротворец через торрент https://i6.imageban.ru/out/2022/01/15/635280da3f8ad5fbef298013f7864454.png Скачать, смотреть онлайн Миротворец бесплантно в хорошем качестве Описание: Кристофера Смита (Джон Сина), более известного под псевдонимом Миротворец, подстрелили в шею, и на него упало здание. А еще Криса ... 9.8 10 4
Торрент: Зарегистрирован [2022-02-20 03:51] · скачан: 170 раз
Статус: √ проверено
Размер: 10.08 GB
Как cкачать? Как скачать Миротворец через торрент | UTorrent

% Раздел Тема Автор DL S | L
Наши сериалы [ 4.54 GB ] Миротворец / Peacemaker / Сезон: 1 / Серии: 1-8 из 8 [2022 WEB-DLRip] MVO [LostFilm] bober100 Скачать
2 | 0
Зарубежные сериалы [ 21.81 GB ] Миротворец / Peacemaker / Сезон: 1 / Серии: 1-8 из 8 [2022 WEB-DLR 1080p] MVO [Novamedia] bober100 Скачать
1 | 0
Зарубежные сериалы [ 10.39 GB ] Миротворец / Peacemaker / Сезон: 1 / Серии: 1-8 из 8 [2022 WEB-DL 1080p] [MVO] + [Ukr MVO] killermax2013 Скачать
3 | 1
Зарубежные сериалы [ 5.32 GB ] Миротворец / Peacemaker / Сезон: 1 / Серии: 1-8 из 8 [2022 WEB-DLRip] MVO [HDRezka Studio] bober100 Скачать
1 | 0
Зарубежные сериалы [ 21.81 GB ] Миротворец / Peacemaker / Сезон: 1 / Серии: 1-8 из 8 [2022 WEB-DLR 1080p] MVO [LostFilm] bober100 Скачать
1 | 0
Зарубежные сериалы [ 20.66 GB ] Миротворец / Peacemaker / Сезон: 1 / Серии: 1-7 из 8 [2022 WEB-DLR 1080p] 2xMVO [LostFilm HDrezka Studio] bober100 Скачать
1 | 0
Зарубежные сериалы [ 23.05 GB ] Миротворец / Peacemaker / Сезон: 1 / Серии: 1-8 из 8 [2022 WEB-DLR 1080p] MVO [HDRezka Studio] bober100 Скачать
2 | 0

28-11-2019 20:33  

Отключить вcю реклaмy на сайте

    Дорогой пользователь! Огромная просьба, поблагодарите релизера, оцените раздачу и оставьте свои комментарий, если Вы скачали Миротворец через торрент бесплатно!
    Комментировать посты могут только пользователи прошедшие не сложную регистрацию
    Показать сообщения:    

    Миротворец через торрент
    Скачать бесплатно Миротворец
    Миротворец скачать торрент
    Миротворец смотреть онлайн
    Cкачать фильм Миротворец бесплатно
    Миротворец скачать торрент в хорошем качестве
    Миротворец смотреть онлайн бесплатно в хорошем качестве


    Вы не можете начинать темы
    Вы не можете отвечать на сообщения
    Вы не можете редактировать свои сообщения
    Вы не можете удалять свои сообщения
    Вы не можете голосовать в опросах
    Вы не можете прикреплять файлы к сообщениям
    Вы можете скачивать файлы