Доктор Стрэндж

Лицензия

Добыча

Дубляж

Уэнсдэй

1 сезон

Тор

Дубляж

В эфире

Дубляж

Там, где раки поют

MVO

Властелин колец

1 сезон

Deluxe

pack

Рекомендуем

30

Пиратка

ВАЖНО

ВАЖНО

Ghostwire

Пиратка

jed

RePack

nioh2

RePack

RDR2

RePack

NEED FOR SPEED™ PAYBACK

RePack

скачать торрент

Кинопоиск HD

Острые козырьки 6 сезон

6 сезон

FAR CRY 6

RePack

скачать торрент

Лицензия

скачать торрент

MVO

1

1 сезон

скачать торрент

1 сезон

скачать торрент

Лицензия

  

Бешеные кролики. Вторжение на Марс / Rabbids Invasion: Mission to Mars (Франц Киршнер) [2021, Мультфильм, Приключения, Фантастика, WEB-DLRip-AVC] Дубляж [Netflix] от ExKinoRay

Бешеные кролики. Вторжение на Марс через торрент pb.wtf

Раздают: 1 [ 0 KB/s ]
Размер: 1.36 GB | Добавлен: 9 мес. назад | Торрент скачан:271 раз
Смотреть онлайн | Скачать   

26-02-2022 07:54 Бешеные кролики. Вторжение на Марс Скачать торрент  


Бешеные кролики. Вторжение на Марс / Rabbids Invasion: Mission to Mars
Название: Бешеные кролики. Вторжение на Марс
Оригинальное название: Rabbids Invasion: Mission to Mars
Год выхода: 2022
Жанр: Мультфильм, Приключения, Фантастика
Режиссер: Франц Киршнер
В ролях: Дамьен Лаке

Описание: Они могли бы отправить роботов… Но зачем, если есть Бешеные кролики? Вливайтесь в безбашенный экипаж — и вперед, на марсианскую миссию, где всё идет наперекосяк.

Страна: США
Продолжительность: ~ 01:10:00
Перевод: Профессиональный (полное дублирование) - Студия IYUNO SDI RU по заказу Netflix



Информация о файле:
Кодек: AVC
Формат: MKV
Качество: WEB-DLRip-AVC
Видео: MPEG-4 AVC, 1024x576, 25.000 fps, 1850kbps
Аудио RU: AC3, 6 ch, 48 kHz, 448 kbps
Аудио EN: AC3, 6 ch, 48 kHz, 448 kbps
Субтитры: Русские, английские

семпл
x264 info: frame I:1201 Avg QP:15.34 size: 71763
x264 info: frame P:21596 Avg QP:18.86 size: 20479
x264 info: frame B:83506 Avg QP:20.11 size: 5438
General
Unique ID : 240372737719666875673337257524346102038 (0xB4D61AF77CE24E90F1DB15B8253E2116)
Complete name : D:uTorrentРипы wolf1245Rabbids Invasion. Mission to Mars.2022.Дубляж.Netflix.WEB-DLRip-AVC.[wolf1245.ExKinoRay].mkv
Format : Matroska
Format version : Version 4
File size : 1.36 GiB
Duration : 1 h 10 min
Overall bit rate : 2 746 kb/s
Movie name : Rabbids Invasion. Mission to Mars.2022.Дубляж.Netflix.WEB-DLRip-AVC.[wolf1245.ExKinoRay]
Encoded date : UTC 2022-02-26 07:43:23
Writing application : mkvmerge v65.0.0 ('Too Much') 64-bit
Writing library : libebml v1.4.2 + libmatroska v1.6.4
Video
ID : 1
Format : AVC
Format/Info : Advanced Video Codec
Format profile : [email protected]
Format settings : CABAC / 11 Ref Frames
Format settings, CABAC : Yes
Format settings, Reference frames : 11 frames
Codec ID : V_MPEG4/ISO/AVC
Duration : 1 h 10 min
Bit rate : 1 850 kb/s
Width : 1 024 pixels
Height : 576 pixels
Display aspect ratio : 16:9
Frame rate mode : Constant
Frame rate : 25.000 FPS
Color space : YUV
Chroma subsampling : 4:2:0
Bit depth : 8 bits
Scan type : Progressive
Bits/(Pixel*Frame) : 0.125
Stream size : 937 MiB (67%)
Title : -=[wolf1245.ExKinoRay]=-
Writing library : x264 core 163 r3060 5db6aa6
Encoding settings : cabac=1 / ref=11 / deblock=1:-2:-1 / analyse=0x3:0x133 / me=umh / subme=9 / psy=1 / psy_rd=1.05:0.15 / mixed_ref=1 / me_range=32 / chroma_me=1 / trellis=2 / 8x8dct=1 / cqm=0 / deadzone=21,11 / fast_pskip=1 / chroma_qp_offset=-3 / threads=10 / lookahead_threads=2 / sliced_threads=0 / nr=0 / decimate=0 / interlaced=0 / bluray_compat=0 / constrained_intra=0 / bframes=10 / b_pyramid=2 / b_adapt=2 / b_bias=0 / direct=3 / weightb=1 / open_gop=0 / weightp=2 / keyint=250 / keyint_min=25 / scenecut=40 / intra_refresh=0 / rc_lookahead=60 / rc=2pass / mbtree=0 / bitrate=1850 / ratetol=1.0 / qcomp=0.60 / qpmin=0 / qpmax=69 / qpstep=4 / cplxblur=20.0 / qblur=0.5 / vbv_maxrate=50000 / vbv_bufsize=62500 / nal_hrd=none / filler=0 / ip_ratio=1.40 / pb_ratio=1.30 / aq=3:0.80
Language : English
Default : Yes
Forced : No
Audio #1
ID : 2
Format : AC-3
Format/Info : Audio Coding 3
Commercial name : Dolby Digital
Codec ID : A_AC3
Duration : 1 h 10 min
Bit rate mode : Constant
Bit rate : 448 kb/s
Channel(s) : 6 channels
Channel layout : L R C LFE Ls Rs
Sampling rate : 48.0 kHz
Frame rate : 31.250 FPS (1536 SPF)
Compression mode : Lossy
Stream size : 227 MiB (16%)
Title : Дубляж | Netflix | RUS
Language : Russian
Service kind : Complete Main
Default : Yes
Forced : No
Audio #2
ID : 3
Format : AC-3
Format/Info : Audio Coding 3
Commercial name : Dolby Digital
Codec ID : A_AC3
Duration : 1 h 10 min
Bit rate mode : Constant
Bit rate : 448 kb/s
Channel(s) : 6 channels
Channel layout : L R C LFE Ls Rs
Sampling rate : 48.0 kHz
Frame rate : 31.250 FPS (1536 SPF)
Compression mode : Lossy
Stream size : 227 MiB (16%)
Title : Original | ENG
Language : English
Service kind : Complete Main
Default : Yes
Forced : No
Text #1
ID : 4
Format : UTF-8
Codec ID : S_TEXT/UTF8
Codec ID/Info : UTF-8 Plain Text
Duration : 1 h 8 min
Bit rate : 1 b/s
Count of elements : 18
Stream size : 846 Bytes (0%)
Title : forced
Language : Russian
Default : Yes
Forced : No
Text #2
ID : 5
Format : UTF-8
Codec ID : S_TEXT/UTF8
Codec ID/Info : UTF-8 Plain Text
Duration : 1 h 8 min
Bit rate : 65 b/s
Count of elements : 498
Stream size : 32.9 KiB (0%)
Title : Russian
Language : Russian
Default : No
Forced : No
Text #3
ID : 6
Format : UTF-8
Codec ID : S_TEXT/UTF8
Codec ID/Info : UTF-8 Plain Text
Duration : 1 h 8 min
Bit rate : 69 b/s
Count of elements : 805
Stream size : 34.8 KiB (0%)
Title : English
Language : English
Default : No
Forced : No
Релиз от: VK релиз-группы




Скачать Бешеные кролики. Вторжение на Марс через торрент https://i116.fastpic.org/big/2022/0226/3e/f7b014d1590929a25fa395fbc4268d3e.png Скачать, смотреть онлайн Бешеные кролики. Вторжение на Марс бесплантно в хорошем качестве Описание: Они могли бы отправить роботов… Но зачем, если есть Бешеные кролики? Вливайтесь в безбашенный экипаж — и вперед, на марсианскую ... 10 10 5
Info! Золотая раздача, скачанное не засчитывается.
Торрент: Зарегистрирован [2022-02-26 07:54] · скачан: 271 раз
Статус: √ проверено
Размер: 1.36 GB
Как cкачать? Как скачать Бешеные кролики. Вторжение на Марс через торрент | UTorrent

% Раздел Тема Автор DL S | L
Зарубежные Мультфильмы (WEB-DL 720p, 1080p) [ 4.25 GB ] Бешеные кролики. Вторжение на Марс / Rabbids Invasion: Mission to Mars | DUB | 1080p bober100 Скачать
2 | 0

28-11-2019 20:33  


Отключить вcю реклaмy на сайте, в т.ч. и в плеере онлайн просмотра!

    Дорогой пользователь! Огромная просьба, поблагодарите релизера, оцените раздачу и оставьте свои комментарий, если Вы скачали Бешеные кролики. Вторжение на Марс через торрент бесплатно!!
    Комментировать посты могут только пользователи прошедшие не сложную регистрацию
    Показать сообщения:    


    Бешеные кролики. Вторжение на Марс через торрент
    Скачать бесплатно Бешеные кролики. Вторжение на Марс
    Бешеные кролики. Вторжение на Марс скачать торрент
    Бешеные кролики. Вторжение на Марс смотреть онлайн
    Cкачать фильм Бешеные кролики. Вторжение на Марс бесплатно
    Бешеные кролики. Вторжение на Марс скачать торрент в хорошем качестве
    Бешеные кролики. Вторжение на Марс смотреть онлайн бесплатно в хорошем качестве
    Вы не можете начинать темы
    Вы не можете отвечать на сообщения
    Вы не можете редактировать свои сообщения
    Вы не можете удалять свои сообщения
    Вы не можете голосовать в опросах
    Вы не можете прикреплять файлы к сообщениям
    Вы можете скачивать файлы
    Бешеные кролики. Вторжение на Марс / Rabbids Invasion: Mission to Mars [2021, Мультфильм, Приключения, Фантастика, WEB-DLRip-AVC] Дубляж [Netflix] от ExKinoRay смотреть онлайн, скачать торрент picoco.icu