Доктор Стрэндж

Лицензия

Добыча

Дубляж

Дом дракона

1 сезон

Тор

Дубляж

В эфире

Дубляж

Там, где раки поют

MVO

Властелин колец

1 сезон

GLOBAL

pack

Рекомендуем

30

Пиратка

ВАЖНО

ВАЖНО

Ghostwire

Пиратка

jed

RePack

nioh2

RePack

RDR2

RePack

NEED FOR SPEED™ PAYBACK

RePack

скачать торрент

Кинопоиск HD

Острые козырьки 6 сезон

6 сезон

FAR CRY 6

RePack

скачать торрент

Лицензия

скачать торрент

MVO

1

1 сезон

скачать торрент

1 сезон

скачать торрент

Лицензия

  

Зверопой 2 / Sing 2 (Гарт Дженнингс, Кристоф Лурделе) [2021, мультфильм, мюзикл, комедия, приключения, семейный, WEB-DLRip-AVC] MVO [Кинопоиск HD, Локализованная версия] от ExKinoRay

Зверопой 2 через торрент pb.wtf

Раздают: 5 [ 0 KB/s ]
Размер: 2.19 GB | Добавлен: 9 мес. назад | Торрент скачан:446 раз
Смотреть онлайн | Скачать   

26-02-2022 17:58 Зверопой 2 Скачать торрент  


Зверопой 2 / Sing 2
Название: Зверопой 2
Оригинальное название: Sing 2
Год выхода: 2021
Жанр: Мультфильм, мюзикл, комедия, приключения, семейный
Режиссер: Гарт Дженнингс
В ролях: Мэттью Макконахи, Тэрон Эджертон, Тори Келли, Риз Уизерспун, Ник Кролл, Скарлетт Йоханссон, Бобби Каннавале, Холзи, Боно, Эрик Андре, Фаррелл Уильямс, Летишиа Райт, Челси Перетти, Гарт Дженнингс, Адам Бакстон

Описание: Бастер Мун и его команда собираются представить публике гламурного Редшор-Сити премьеру своего нового шоу. Но без связей это сделать сложно, и герои вынуждены идти на рискованные меры. Бастеру предстоит отправиться на поиски легенды рока, льва Клэя Кэллоуэя, и убедить его вернуться на сцену.



Страна: США
Студия: Illumination Entertainment, Universal Pictures
Продолжительность: 01:49:57
Перевод: Дублированный - Кинопоиск HD



Информация о файле:
Кодек: AVC
Формат: MKV
Качество: WEB-DLRip-AVC
Видео: MPEG-4 AVC, 1024x554, 23.976 fps, 1950 kb/s
Аудио RU: AC3, 6 ch, 48 kHz, 448 kbps
Аудио EN: AC3, 6 ch, 48 kHz, 448 kbps
Субтитры: Русские (Full), английские

семпл
General
Unique ID : 262032700789498017829363163558138809097 (0xC521A998AD4D30566D4EFF5F0FAF0B09)
Complete name : D:uTorrentРипы wolf1245Sing 2..Дубляж.KHD.WEB-DLRip-AVC.[wolf1245.ExKinoRay].mkv
Format : Matroska
Format version : Version 4
File size : 2.19 GiB
Duration : 1 h 49 min
Overall bit rate : 2 846 kb/s
Movie name : Sing 2..Дубляж.KHD.WEB-DLRip-AVC.[wolf1245.ExKinoRay]
Encoded date : UTC 2022-02-26 17:46:06
Writing application : mkvmerge v65.0.0 ('Too Much') 64-bit
Writing library : libebml v1.4.2 + libmatroska v1.6.4
Video
ID : 1
Format : AVC
Format/Info : Advanced Video Codec
Format profile : [email protected]
Format settings : CABAC / 12 Ref Frames
Format settings, CABAC : Yes
Format settings, Reference frames : 12 frames
Codec ID : V_MPEG4/ISO/AVC
Duration : 1 h 49 min
Bit rate : 1 950 kb/s
Width : 1 024 pixels
Height : 554 pixels
Display aspect ratio : 1.85:1
Frame rate mode : Constant
Frame rate : 23.976 (24000/1001) FPS
Color space : YUV
Chroma subsampling : 4:2:0
Bit depth : 8 bits
Scan type : Progressive
Bits/(Pixel*Frame) : 0.143
Stream size : 1.50 GiB (68%)
Title : -=[wolf1245.ExKinoRay]=-
Writing library : x264 core 163 r3060 5db6aa6
Encoding settings : cabac=1 / ref=12 / deblock=1:-2:-1 / analyse=0x3:0x133 / me=umh / subme=9 / psy=1 / psy_rd=1.05:0.15 / mixed_ref=1 / me_range=32 / chroma_me=1 / trellis=2 / 8x8dct=1 / cqm=0 / deadzone=21,11 / fast_pskip=1 / chroma_qp_offset=-3 / threads=10 / lookahead_threads=2 / sliced_threads=0 / nr=0 / decimate=0 / interlaced=0 / bluray_compat=0 / constrained_intra=0 / bframes=10 / b_pyramid=2 / b_adapt=2 / b_bias=0 / direct=3 / weightb=1 / open_gop=0 / weightp=2 / keyint=240 / keyint_min=24 / scenecut=40 / intra_refresh=0 / rc_lookahead=60 / rc=2pass / mbtree=0 / bitrate=1950 / ratetol=1.0 / qcomp=0.60 / qpmin=0 / qpmax=69 / qpstep=4 / cplxblur=20.0 / qblur=0.5 / vbv_maxrate=50000 / vbv_bufsize=62500 / nal_hrd=none / filler=0 / ip_ratio=1.40 / pb_ratio=1.30 / aq=3:0.80
Language : English
Default : Yes
Forced : No
Audio #1
ID : 2
Format : AC-3
Format/Info : Audio Coding 3
Commercial name : Dolby Digital
Codec ID : A_AC3
Duration : 1 h 49 min
Bit rate mode : Constant
Bit rate : 448 kb/s
Channel(s) : 6 channels
Channel layout : L R C LFE Ls Rs
Sampling rate : 48.0 kHz
Frame rate : 31.250 FPS (1536 SPF)
Compression mode : Lossy
Stream size : 352 MiB (16%)
Title : Дубляж | KHD | RUS
Language : Russian
Service kind : Complete Main
Default : No
Forced : No
Audio #2
ID : 3
Format : AC-3
Format/Info : Audio Coding 3
Commercial name : Dolby Digital
Codec ID : A_AC3
Duration : 1 h 49 min
Bit rate mode : Constant
Bit rate : 448 kb/s
Channel(s) : 6 channels
Channel layout : L R C LFE Ls Rs
Sampling rate : 48.0 kHz
Frame rate : 31.250 FPS (1536 SPF)
Compression mode : Lossy
Stream size : 352 MiB (16%)
Title : Original | ENG
Language : English
Service kind : Complete Main
Default : Yes
Forced : No
Text #1
ID : 4
Format : UTF-8
Codec ID : S_TEXT/UTF8
Codec ID/Info : UTF-8 Plain Text
Duration : 1 h 39 min
Bit rate : 91 b/s
Count of elements : 1453
Stream size : 67.1 KiB (0%)
Title : Full
Language : Russian
Default : No
Forced : No
Text #2
ID : 5
Format : UTF-8
Codec ID : S_TEXT/UTF8
Codec ID/Info : UTF-8 Plain Text
Duration : 1 h 43 min
Bit rate : 81 b/s
Count of elements : 2071
Stream size : 62.1 KiB (0%)
Title : Full
Language : English
Default : No
Forced : No
Релиз от: VK релиз-группы




Скачать Зверопой 2 через торрент https://i116.fastpic.org/big/2022/0226/7e/51222dfd57fa6c1bdac0964e3db5e57e.jpg Скачать, смотреть онлайн Зверопой 2 бесплантно в хорошем качестве Описание: Бастер Мун и его команда собираются представить публике гламурного Редшор-Сити премьеру своего нового шоу. Но без связей это ... 9.8 10 5
Торрент: Зарегистрирован [2022-02-26 17:58] · скачан: 446 раз
Статус: √ проверено
Размер: 2.19 GB
Как cкачать? Как скачать Зверопой 2 через торрент | UTorrent

% Раздел Тема Автор DL S | L
Иностранные мультфильмы [ 2.18 GB ] Зверопой 2 / Sing 2 | Jaskier | DLRip-AVC Lithuania Скачать
2 | 0
Мультфильмы (48-60 fps) [ 4.71 GB ] Зверопой 2 / Sing 2 | Jaskier | DLRip 720p / 60 FPS slaventi-69 Скачать
2 | 0

28-11-2019 20:33  


Отключить вcю реклaмy на сайте, в т.ч. и в плеере онлайн просмотра!

    Дорогой пользователь! Огромная просьба, поблагодарите релизера, оцените раздачу и оставьте свои комментарий, если Вы скачали Зверопой 2 через торрент бесплатно!!
    Комментировать посты могут только пользователи прошедшие не сложную регистрацию
    Показать сообщения:    


    Зверопой 2 через торрент
    Скачать бесплатно Зверопой 2
    Зверопой 2 скачать торрент
    Зверопой 2 смотреть онлайн
    Cкачать фильм Зверопой 2 бесплатно
    Зверопой 2 скачать торрент в хорошем качестве
    Зверопой 2 смотреть онлайн бесплатно в хорошем качестве
    Вы не можете начинать темы
    Вы не можете отвечать на сообщения
    Вы не можете редактировать свои сообщения
    Вы не можете удалять свои сообщения
    Вы не можете голосовать в опросах
    Вы не можете прикреплять файлы к сообщениям
    Вы можете скачивать файлы
    Зверопой 2 / Sing 2 [2021, мультфильм, мюзикл, комедия, приключения, семейный, WEB-DLRip-AVC] MVO [Кинопоиск HD, Локализованная версия] от ExKinoRay смотреть онлайн, скачать торрент picoco.icu