Всегда рабочее зеркало без VPN и Proxy просто перед .vidak.icu напиши любое слово или цифру, Пример http://68cb.vidak.icu

MVO

MVO

1 сезон

1

1 сезон

iTunes

1 сезон

13

1 сезон

Deluxe

pack

Рекомендуем

Repack

30

ВАЖНО

RePack

MK11

RePack

jed

RePack

fifa19

RePack

RDR2

RePack

NEED FOR SPEED™ PAYBACK

Кинопоиск HD

6 сезон

 Острые козырьки 6 сезон

Все сериалы

все сериалы на PB.wtf

RePack

FAR CRY 5
  
Magnet ссылка

Мы — монстры 2 / Monster Family 2 (Хольгер Таппе) [2021 г., мультфильм, фэнтези, комедия, детский, приключения, WEB-DLRip, Дубляж "iTunes"] pb.wtf

Мы — монстры 2 через торрент pb.wtf

Размер: 720 MB | Добавлен: 5 мес. 7 д. назад | Торрент скачан:30 раз
Смотреть онлайн Мы — монстры 2 | Скачать    Ребята, помогите собрать деньги на оплату серверов!!!

28-02-2022 17:59 Мы — монстры 2 Скачать торрент  

Мы — монстры 2 / Monster Family 2
Год выпуска: 2021
Страна: Германия, Великобритания / Ambient Entertainment GmbH, Rothkirch Cartoon Film, Timeless Films
Жанр: мультфильм, фэнтези, комедия, детский, приключения
Продолжительность: 01:39:05
Перевод: Дубляж (iTunes)

Режиссер: Хольгер Таппе

rating

В ролях: Итан Раус, Эмили Кэри, Джейсон Айзекс, Райнер Фритцше, Бернхард Вёглер, Мариус Кларен, Ник Фрост, Эмили Уотсон, Ребекка Кэмп, Эмма Тейт

Описание: Баба Яга и Горбун решили сыграть свадьбу! Семья Уишбон точно не пропустит такой праздник, так как теперь они родственники! Но как раз во время церемонии НЕ молодую пару возлюбленных похищает девочка Старр, обладающая сверхчеловеческими способностями! Что ж, Уишбонам придется вновь прибегнуть к помощи магии и снова превратиться в монстров: мама вампир, папа Франкенштейн и их дети — непоседливый оборотень и обаятельная мумия, отправляются в новое приключение. Ведь свадьба должна состояться несмотря ни на что!

Качество: WEB-DLRip
Формат: AVI
Видео кодек: DivX
Аудио кодек: MP3
Видео: 640x272 (2.35:1), 25 fps, DivX Codec 4.x ~877 kbps avg, 0.20 bit/pixel
Аудио: 48 kHz, MPEG Layer 3, 2 ch, ~128.00 kbps avg

Общее
Полное имя : G:\ФИЛЬМЫ\Мы — монстры 2.2021.D.WEB-DLRip.avi
Формат : AVI
Формат/Информация : Audio Video Interleave
Размер файла : 720 Мбайт
Продолжительность : 1 ч. 39 м.
Общий поток : 1 015 Кбит/сек
Программа кодирования : VirtualDubMod 1.5.10.3 | www.virtualdub-fr.org || (build 2550/release)
Библиотека кодирования : VirtualDubMod build 2550/release

Видео
Идентификатор : 0
Формат : MPEG-4 Visual
Профиль формата : Advanced [email protected]
Настройки формата : BVOP2
Параметр BVOP формата : 2
Параметр QPel формата : Нет
Параметр GMC формата : Без точки перехода
Параметр матрицы формата : Default (MPEG)
Идентификатор кодека : DIVX
Идентификатор кодека/Информация : Project Mayo
Идентификатор кодека/Подсказка : DivX 4
Продолжительность : 1 ч. 39 м.
Битрейт : 878 Кбит/сек
Ширина : 640 пикселей
Высота : 272 пикселя
Соотношение сторон : 2,35:1
Частота кадров : 25,000 кадров/сек
Цветовое пространство : YUV
Субдискретизация насыщенности : 4:2:0
Битовая глубина : 8 бит
Тип развёртки : Прогрессивная
Метод сжатия : С потерями
Бит/(Пиксели*Кадры) : 0.202
Размер потока : 622 Мбайт (86%)
Библиотека кодирования : XviD 1.2.1 (UTC 2008-12-04)

Аудио
Идентификатор : 1
Формат : MPEG Audio
Версия формата : Version 1
Профиль формата : Layer 3
Настройки формата : Joint stereo / MS Stereo
Идентификатор кодека : 55
Идентификатор кодека/Подсказка : MP3
Продолжительность : 1 ч. 38 м.
Вид битрейта : Постоянный
Битрейт : 128 Кбит/сек
Каналы : 2 канала
Частота : 48,0 КГц
Частота кадров : 41,667 кадра/сек (1152 SPF)
Метод сжатия : С потерями
Размер потока : 90,6 Мбайт (13%)
Выравнивание : Соединение по промежуткам
Продолжительность промежутка : 40 мс. (1,00 видеокадр)
Время предзагрузки промежутка : 504 мс.
Библиотека кодирования : LAME3.99r
Настройки программы : -m j -V 4 -q 2 -lowpass 17 -b 128

Report created by : MediaInfoLib - v21.09
Report created on : UTC 2022-02-28 17:41:34

pb.wtf



Скачать Мы — монстры 2 через торрент https://pic1.kartinco.top/new/img/2022-02/28/lace7lq0a34z6e0x868saghr6.jpg Скачать, смотреть онлайн Мы — монстры 2 бесплантно в хорошем качестве Описание: Баба Яга и Горбун решили сыграть свадьбу! Семья Уишбон точно не пропустит такой праздник, так как теперь они родственники! Но как ... 10 10 1
Info! Золотая раздача, скачанное не засчитывается.
Торрент: Зарегистрирован [2022-02-28 17:59] · скачан: 30 раз
Статус: √ проверено
Размер: 720 MB
Как cкачать? Как скачать Мы — монстры 2 через торрент | UTorrent

% Раздел Тема Автор DL S | L
3D Мультфильмы [ 12.8 GB ] Мы — монстры 2 в 3Д / Monster Family 2 3D [2021 Мультфильм детский BDRip 1080p] OverUnder / Вертикальная стереопара () serega768 Скачать
1 | 0
Зарубежные Мультфильмы (BDRip 1080p, 720p, Blu-ray, BD-Remux) [ 16.2 GB ] Мы – монстры 2 / Monster Family 2 [2021 Мультфильм детский BD Remux 1080p] bober100 Скачать
1 | 0
Иностранные мультфильмы [ 1.46 GB ] Мы – монстры 2 / Monster Family 2 [2021 Мультфильм детский BDRip] bober100 Скачать
3 | 0
Зарубежные Мультфильмы (BDRip 1080p, 720p, Blu-ray, BD-Remux) [ 8.15 GB ] Мы – монстры 2 / Monster Family 2 [2021 Мультфильм детский BDRip 1080p] bober100 Скачать
4 | 0

28-11-2019 20:33  

Отключить вcю реклaмy на сайте

    Дорогой пользователь! Огромная просьба, поблагодарите релизера, оцените раздачу и оставьте свои комментарий, если Вы скачали Мы — монстры 2 через торрент бесплатно!
    Комментировать посты могут только пользователи прошедшие не сложную регистрацию
    Показать сообщения:    

    Мы — монстры 2 через торрент
    Скачать бесплатно Мы — монстры 2
    Мы — монстры 2 скачать торрент
    Мы — монстры 2 смотреть онлайн
    Cкачать фильм Мы — монстры 2 бесплатно
    Мы — монстры 2 скачать торрент в хорошем качестве
    Мы — монстры 2 смотреть онлайн бесплатно в хорошем качестве


    Вы не можете начинать темы
    Вы не можете отвечать на сообщения
    Вы не можете редактировать свои сообщения
    Вы не можете удалять свои сообщения
    Вы не можете голосовать в опросах
    Вы не можете прикреплять файлы к сообщениям
    Вы можете скачивать файлы