Аватар: Путь воды

Лицензия

Сансара

1 сезон

скачать смотреть онлайн John Wick Chapter 4

MVO

Крик 6

Дубляж

13 клиническая

3 сезон

Восстание зловещих мертвецов

Дубляж

Одни из нас

Дубляж

Dead Island 2 Gold

Gold

Deluxe

Deluxe

pack

Рекомендуем

ВАЖНО

ВАЖНО

30

Repack

The Lord of the Rings: Gollum

Лицензия

jed

RePack

nioh2

RePack

RDR2

RePack

NEED FOR SPEED™ PAYBACK

RePack

скачать торрент

Кинопоиск HD

Острые козырьки 6 сезон

6 сезон

FAR CRY 6

RePack

скачать торрент

Лицензия

скачать торрент

MVO

1

1 сезон

скачать торрент

1 сезон

скачать торрент

Лицензия

  

Зверопой 2 / Sing 2 (Гарт Дженнингс) [2021, Мультфильм, мюзикл, комедия, приключения, семейный, WEB-DL 720p] [Локализованный видеоряд] Дубляж [Кинопоиск HD]

Зверопой 2 через торрент pb.wtf

Раздают: 3 [ 5 KB/s ]
Размер: 4.33 GB | Добавлен: 1 год 3 мес. назад | Торрент скачан:422 раза
Смотреть онлайн | Скачать | Поддержите нас   

24-02-2022 03:23 Зверопой 2 Скачать торрент  

Зверопой 2
Sing 2

Год выпуска: 2021
Страна: США
Выпущено: Illumination Entertainment, Universal Pictures
Жанр: Мультфильм, мюзикл, комедия, приключения, семейный
Продолжительность: 01:49:57
Перевод: Дублированный | Кинопоиск HD
Субтитры: Русские (Full), английские

Режиссер: Гарт Дженнингс

rating

В ролях: Мэттью Макконахи, Тэрон Эджертон, Тори Келли, Риз Уизерспун, Ник Кролл, Скарлетт Йоханссон, Бобби Каннавале, Холзи, Боно, Эрик Андре, Фаррелл Уильямс, Летишиа Райт, Челси Перетти, Гарт Дженнингс, Адам Бакстон

Описание: Бастер Мун и его команда собираются представить публике гламурного Редшор-Сити премьеру своего нового шоу. Но без связей это сделать сложно, и герои вынуждены идти на рискованные меры. Бастеру предстоит отправиться на поиски легенды рока, льва Клэя Кэллоуэя, и убедить его вернуться на сцену.

Качество: WEB-DL 720p | Локализованный видеоряд
Формат: MKV

Видео: MPEG-4 AVC, 1280x692, 4000 Kbit/s, 23.976 fps
Аудио #01: 48 kHz, E-AC3, 5.1, 448 Kbps | Дублированный | Пифагор | RUS |
Аудио #02: 48 kHz, AC3, 5.1, 448 Kbps | Дублированный | Пифагор | RUS |
Аудио #03: 48 kHz, E-AC3+Atmos, 5.1, 768 Kbps | Оригинал | ENG |
скриншот  скриншот  скриншот  скриншот  скриншот  

General
Unique ID : 298242713131266591266370011674020362041 (0xE05F750A8036026DE244F5B55C033739)
Complete name : D:VideoSing.2.WEB-DL.720p.seleZen.mkv
Format : Matroska
Format version : Version 4
File size : 4.33 GiB
Duration : 1 h 49 min
Overall bit rate : 5 641 kb/s
Movie name : Sing 2 2021 from seleZen
Encoded date : UTC 2022-02-24 03:04:32
Writing application : mkvmerge v59.0.0 ('Shining Star') 64-bit
Writing library : libebml v1.4.2 + libmatroska v1.6.4

Video
ID : 1
Format : AVC
Format/Info : Advanced Video Codec
Format profile : [email protected]
Format settings : CABAC / 5 Ref Frames
Format settings, CABAC : Yes
Format settings, Reference : 5 frames
Codec ID : V_MPEG4/ISO/AVC
Duration : 1 h 49 min
Bit rate : 4 000 kb/s
Width : 1 280 pixels
Height : 692 pixels
Display aspect ratio : 1.85:1
Frame rate mode : Constant
Frame rate : 23.976 (24000/1001) FPS
Color space : YUV
Chroma subsampling : 4:2:0
Bit depth : 8 bits
Scan type : Progressive
Bits/(Pixel*Frame) : 0.188
Stream size : 3.05 GiB (70%)
Writing library : x264 core 157
Encoding settings : cabac=1 / ref=5 / deblock=1:0:0 / analyse=0x3:0x133 / me=umh / subme=10 / psy=1 / psy_rd=1.00:0.00 / mixed_ref=1 / me_range=24 / chroma_me=1 / trellis=2 / 8x8dct=1 / cqm=0 / deadzone=21,11 / fast_pskip=1 / chroma_qp_offset=-2 / threads=22 / lookahead_threads=3 / sliced_threads=0 / nr=0 / decimate=1 / interlaced=0 / bluray_compat=0 / stitchable=1 / constrained_intra=0 / bframes=8 / b_pyramid=2 / b_adapt=2 / b_bias=0 / direct=3 / weightb=1 / open_gop=0 / weightp=2 / keyint=192 / keyint_min=96 / scenecut=40 / intra_refresh=0 / rc_lookahead=60 / rc=2pass / mbtree=1 / bitrate=4000 / ratetol=1.0 / qcomp=0.60 / qpmin=0 / qpmax=69 / qpstep=4 / cplxblur=20.0 / qblur=0.5 / vbv_maxrate=4400 / vbv_bufsize=6000 / nal_hrd=none / filler=0 / ip_ratio=1.40 / aq=1:1.00
Default : Yes
Forced : No

Audio #1
ID : 2
Format : E-AC-3
Format/Info : Enhanced AC-3
Commercial name : Dolby Digital Plus
Codec ID : A_EAC3
Duration : 1 h 49 min
Bit rate mode : Constant
Bit rate : 448 kb/s
Channel(s) : 6 channels
Channel layout : L R C LFE Ls Rs
Sampling rate : 48.0 kHz
Frame rate : 31.250 FPS (1536 SPF)
Compression mode : Lossy
Stream size : 352 MiB (8%)
Title : Дубляж
Language : Russian
Service kind : Complete Main
Default : Yes
Forced : Yes

Audio #2
ID : 3
Format : AC-3
Format/Info : Audio Coding 3
Commercial name : Dolby Digital
Codec ID : A_AC3
Duration : 1 h 49 min
Bit rate mode : Constant
Bit rate : 448 kb/s
Channel(s) : 6 channels
Channel layout : L R C LFE Ls Rs
Sampling rate : 48.0 kHz
Frame rate : 31.250 FPS (1536 SPF)
Compression mode : Lossy
Stream size : 352 MiB (8%)
Title : Дубляж
Language : Russian
Service kind : Complete Main
Default : No
Forced : No

Audio #3
ID : 4
Format : E-AC-3 JOC
Format/Info : Enhanced AC-3 with Joint Object Coding
Commercial name : Dolby Digital Plus with Dolby Atmos
Codec ID : A_EAC3
Duration : 1 h 49 min
Bit rate mode : Constant
Bit rate : 768 kb/s
Channel(s) : 6 channels
Channel layout : L R C LFE Ls Rs
Sampling rate : 48.0 kHz
Frame rate : 31.250 FPS (1536 SPF)
Compression mode : Lossy
Stream size : 603 MiB (14%)
Title : Original
Language : English
Service kind : Complete Main
Default : No
Forced : No
Complexity index : 16
Number of dynamic objects : 15
Bed channel count : 1 channel
Bed channel configuration : LFE

Text #1
ID : 5
Format : UTF-8
Codec ID : S_TEXT/UTF8
Codec ID/Info : UTF-8 Plain Text
Duration : 1 h 39 min
Bit rate : 91 b/s
Count of elements : 1453
Stream size : 67.1 KiB (0%)
Title : Full
Language : Russian
Default : No
Forced : No

Text #2
ID : 6
Format : UTF-8
Codec ID : S_TEXT/UTF8
Codec ID/Info : UTF-8 Plain Text
Duration : 1 h 43 min
Bit rate : 81 b/s
Count of elements : 2071
Stream size : 62.1 KiB (0%)
Title : Full
Language : English
Default : No
Forced : No





Скачать Зверопой 2 через торрент https://i116.fastpic.org/big/2022/0319/64/fae8c34e2cf8faa7cc42b21127b20c64.jpg Скачать, смотреть онлайн Зверопой 2 бесплатно в хорошем качестве Описание: Бастер Мун и его команда собираются представить публике гламурного Редшор-Сити премьеру своего нового шоу. Но без связей это ... 10 10 5
Торрент: Зарегистрирован [2022-02-24 03:23] · скачан: 422 раз
Статус: √ проверено
Размер: 4.33 GB
Как cкачать? Как скачать Зверопой 2 через торрент | UTorrent

% Раздел Тема Автор DL S | L
3D Мультфильмы [ 23.8 GB ] Зверопой 2 в 3Д / Sing 2 3D | стереопара | 1080p serega768 Скачать
2 | 1
Ultra HD (UHD: 2K, 4K, 8K) [ 63.05 GB ] Зверопой 2 / Sing 2 | DUB | 2160p bober100 Скачать
3 | 0
Ultra HD (UHD: 2K, 4K, 8K) [ 59.93 GB ] Зверопой 2 / Sing 2 | DUB | 2160p bober100 Скачать
1 | 0
Зарубежные Мультфильмы (BDRip 1080p, 720p, Blu-ray, BD-Remux) [ 23.96 GB ] Зверопой 2 / Sing 2 | DUB | BD Remux 1080p bober100 Скачать
3 | 0
Зарубежные Мультфильмы (BDRip 1080p, 720p, Blu-ray, BD-Remux) [ 6.22 GB ] Зверопой 2 / Sing 2 | DUB | 720p bober100 Скачать
4 | 0
Зарубежные Мультфильмы (BDRip 1080p, 720p, Blu-ray, BD-Remux) [ 15.81 GB ] Зверопой 2 / Sing 2 | DUB | 1080p bober100 Скачать
2 | 0
Иностранные мультфильмы [ 2.19 GB ] Зверопой 2 / Sing 2 | Кинопоиск HD | DLRip-AVC Lithuania Скачать
4 | 0



Последний раз редактировалось: bober100 (2022-03-19 02:53), всего редактировалось 1 раз

28-11-2019 20:33  


Отключить вcю реклaмy на сайте, в т.ч. и в плеере онлайн просмотра!

03-03-2022 08:37 Зверопой 2 Скачать торрент  

Классный мультик и оооочень смысловой. Как и предыдущая часть очень красочный, веселый и позитивный. Главный вывод после просмотра мультфильма сложился такой: никогда не опускай руки как бы ни было тяжело. Ну супер рекомендую такое можно и несколько раз глянуть.



    Дорогой пользователь! Огромная просьба, поблагодарите релизера, оцените раздачу и оставьте свои комментарий, если Вы скачали Зверопой 2 через торрент бесплатно!!
    Комментировать посты могут только пользователи прошедшие не сложную регистрацию
    Показать сообщения:    


    Зверопой 2 через торрент
    Скачать бесплатно Зверопой 2
    Зверопой 2 скачать торрент
    Зверопой 2 смотреть онлайн
    Cкачать фильм Зверопой 2 бесплатно
    Зверопой 2 скачать торрент в хорошем качестве
    Зверопой 2 смотреть онлайн бесплатно в хорошем качестве
    Вы не можете начинать темы
    Вы не можете отвечать на сообщения
    Вы не можете редактировать свои сообщения
    Вы не можете удалять свои сообщения
    Вы не можете голосовать в опросах
    Вы не можете прикреплять файлы к сообщениям
    Вы можете скачивать файлы