Всегда рабочее зеркало без VPN и Proxy просто перед .vidak.icu напиши любое слово или цифру, Пример http://g65l.vidak.icu

Лицензия

MVO

1 сезон

1

1 сезон

iTunes

1 сезон

13

1 сезон

Deluxe

pack

Рекомендуем

Repack

30

ВАЖНО

RePack

MK11

RePack

jed

RePack

fifa19

RePack

RDR2

RePack

NEED FOR SPEED™ PAYBACK

Кинопоиск HD

6 сезон

 Острые козырьки 6 сезон

Все сериалы

все сериалы на PB.wtf

RePack

FAR CRY 5
  
Magnet ссылка

Выживание в раю: история одной семьи / Surviving Paradise: A Family Tale (Рене Годфри, Мэтт Мич) [2022, Документальный, животные, фауна, природа, WEB-DL 1080p] VO [VSI Moscow / Netflix] pb.wtf

Выживание в раю: история одной семьи через торрент pb.wtf

Размер: 4.81 GB | Добавлен: 5 мес. 10 д. назад | Торрент скачан:40 раз
Смотреть онлайн Выживание в раю: история одной семьи | Скачать    Ребята, помогите собрать деньги на оплату серверов!!!

04-03-2022 05:02 Выживание в раю: история одной семьи Скачать торрент  

Выживание в раю: история одной семьи
Surviving Paradise: A Family Tale

Год выпуска: 2022
Страна: Великобритания
Жанр: Документальный, животные, фауна, природа
Продолжительность: 01:19:22
Перевод: Профессиональный (одноголосый) | VSI Moscow по заказу Netflix
Текст читал: Дмитрий Поляновский
Субтитры: Русские (Forced, Full), английские (SDH), иврит, румынские, украинские

Режиссер: Рене Годфри, Мэтт Мич

rating

В ролях: Реге-Жан Пейдж

Описание: Драма в декорациях дикой природы: сильная засуха в пустыне Калахари заставляет прайды, стаи птиц и стада животных держаться вместе — чтобы выжить.

Качество: WEB-DL 1080p
Формат: MKV

Видео: AVC, 1920x1080 (16:9), 25 fps, ~7276 kbps
Аудио №1: E-AC3, 48 kHz, 6 ch, 640 kbps
Аудио №2: E-AC3 JOC, 48 kHz, 6 ch, 768 kbps
скриншот  скриншот  скриншот  скриншот  

General
Complete name : Surviving.Paradise.A.Family.Tale.2022.1080p.NF.WEB-DL.DDP5.1.H.264-EniaHD.mkv
Format : Matroska
Format version : Version 4
File size : 4.81 GiB
Duration : 1 h 19 min
Overall bit rate mode : Variable
Overall bit rate : 8 683 kb/s
Movie name : Surviving Paradise: A Family Tale (2022) - EniaHD
Writing application : mkvmerge v57.0.0 ('Till The End') 64-bit
Writing library : libebml v1.4.2 + libmatroska v1.6.4

Video
ID : 1
Format : AVC
Format/Info : Advanced Video Codec
Format profile : [email protected]
Format settings : CABAC / 4 Ref Frames
Format settings, CABAC : Yes
Format settings, Reference fra : 4 frames
Codec ID : V_MPEG4/ISO/AVC
Duration : 1 h 19 min
Bit rate mode : Variable
Bit rate : 7 276 kb/s
Maximum bit rate : 20.0 Mb/s
Width : 1 920 pixels
Height : 1 080 pixels
Display aspect ratio : 16:9
Frame rate mode : Constant
Frame rate : 25.000 FPS
Color space : YUV
Chroma subsampling : 4:2:0
Bit depth : 8 bits
Scan type : Progressive
Bits/(Pixel*Frame) : 0.140
Stream size : 4.03 GiB (84%)
Writing library : x264 core 148 r2727 7d026e8
Encoding settings : cabac=1 / ref=4 / deblock=1:0:0 / analyse=0x3:0x111 / me=umh / subme=10 / psy=1 / psy_rd=1.00:0.00 / mixed_ref=1 / me_range=120 / chroma_me=1 / trellis=2 / 8x8dct=1 / cqm=0 / deadzone=21,11 / fast_pskip=1 / chroma_qp_offset=-2 / threads=6 / lookahead_threads=1 / sliced_threads=0 / nr=0 / decimate=1 / interlaced=0 / bluray_compat=0 / stitchable=1 / constrained_intra=0 / bframes=16 / b_pyramid=2 / b_adapt=2 / b_bias=0 / direct=3 / weightb=1 / open_gop=0 / weightp=2 / keyint=250 / keyint_min=126 / scenecut=0 / intra_refresh=0 / rc_lookahead=250 / rc=crf / mbtree=1 / crf=20.0 / qcomp=0.50 / qpmin=6 / qpmax=51 / qpstep=4 / vbv_maxrate=20000 / vbv_bufsize=25000 / crf_max=0.0 / nal_hrd=vbr / filler=0 / ip_ratio=1.40 / aq=1:0.80
Default : Yes
Forced : No

Audio #1
ID : 2
Format : E-AC-3
Format/Info : Enhanced AC-3
Commercial name : Dolby Digital Plus
Codec ID : A_EAC3
Duration : 1 h 19 min
Bit rate mode : Constant
Bit rate : 640 kb/s
Channel(s) : 6 channels
Channel layout : L R C LFE Ls Rs
Sampling rate : 48.0 kHz
Frame rate : 31.250 FPS (1536 SPF)
Compression mode : Lossy
Stream size : 363 MiB (7%)
Language : Russian
Service kind : Complete Main
Default : Yes
Forced : No

Audio #2
ID : 3
Format : E-AC-3 JOC
Format/Info : Enhanced AC-3 with Joint Object Coding
Commercial name : Dolby Digital Plus with Dolby Atmos
Codec ID : A_EAC3
Duration : 1 h 19 min
Bit rate mode : Constant
Bit rate : 768 kb/s
Channel(s) : 6 channels
Channel layout : L R C LFE Ls Rs
Sampling rate : 48.0 kHz
Frame rate : 31.250 FPS (1536 SPF)
Compression mode : Lossy
Stream size : 436 MiB (9%)
Language : English
Service kind : Complete Main
Default : No
Forced : No
Complexity index : 16
Number of dynamic objects : 15
Bed channel count : 1 channel
Bed channel configuration : LFE

Text #1
ID : 4
Format : UTF-8
Codec ID : S_TEXT/UTF8
Codec ID/Info : UTF-8 Plain Text
Duration : 1 h 18 min
Bit rate : 0 b/s
Count of elements : 2
Stream size : 109 Bytes (0%)
Title : Forced
Language : Russian
Default : Yes
Forced : No

Text #2
ID : 5
Format : UTF-8
Codec ID : S_TEXT/UTF8
Codec ID/Info : UTF-8 Plain Text
Duration : 1 h 18 min
Bit rate : 56 b/s
Count of elements : 439
Stream size : 32.4 KiB (0%)
Language : Russian
Default : No
Forced : No

Text #3
ID : 6
Format : UTF-8
Codec ID : S_TEXT/UTF8
Codec ID/Info : UTF-8 Plain Text
Duration : 1 h 18 min
Bit rate : 46 b/s
Count of elements : 731
Stream size : 26.9 KiB (0%)
Title : SDH
Language : English
Default : No
Forced : No

Text #4
ID : 7
Format : UTF-8
Codec ID : S_TEXT/UTF8
Codec ID/Info : UTF-8 Plain Text
Duration : 1 h 18 min
Bit rate : 46 b/s
Count of elements : 433
Stream size : 26.6 KiB (0%)
Language : Hebrew
Default : No
Forced : No

Text #5
ID : 8
Format : UTF-8
Codec ID : S_TEXT/UTF8
Codec ID/Info : UTF-8 Plain Text
Duration : 1 h 18 min
Bit rate : 43 b/s
Count of elements : 440
Stream size : 24.8 KiB (0%)
Language : Romanian
Default : No
Forced : No

Text #6
ID : 9
Format : UTF-8
Codec ID : S_TEXT/UTF8
Codec ID/Info : UTF-8 Plain Text
Duration : 1 h 18 min
Bit rate : 57 b/s
Count of elements : 442
Stream size : 33.0 KiB (0%)
Language : Ukrainian
Default : No
Forced : No

pb.wtf



Скачать Выживание в раю: история одной семьи через торрент https://i6.imageban.ru/out/2022/03/03/71217aabfefd6118b5e0edc129bbf8b3.jpg Скачать, смотреть онлайн Выживание в раю: история одной семьи бесплантно в хорошем качестве Описание: Драма в декорациях дикой природы: сильная засуха в пустыне Калахари заставляет прайды, стаи птиц и стада животных держаться ... 9 10 4
Торрент: Зарегистрирован [2022-03-04 05:02] · скачан: 40 раз
Статус: √ проверено
Размер: 4.81 GB
Как cкачать? Как скачать Выживание в раю: история одной семьи через торрент | UTorrent

28-11-2019 20:33  

Отключить вcю реклaмy на сайте

    Дорогой пользователь! Огромная просьба, поблагодарите релизера, оцените раздачу и оставьте свои комментарий, если Вы скачали Выживание в раю: история одной семьи через торрент бесплатно!
    Комментировать посты могут только пользователи прошедшие не сложную регистрацию
    Показать сообщения:    

    Выживание в раю: история одной семьи через торрент
    Скачать бесплатно Выживание в раю: история одной семьи
    Выживание в раю: история одной семьи скачать торрент
    Выживание в раю: история одной семьи смотреть онлайн
    Cкачать фильм Выживание в раю: история одной семьи бесплатно
    Выживание в раю: история одной семьи скачать торрент в хорошем качестве
    Выживание в раю: история одной семьи смотреть онлайн бесплатно в хорошем качестве


    Вы не можете начинать темы
    Вы не можете отвечать на сообщения
    Вы не можете редактировать свои сообщения
    Вы не можете удалять свои сообщения
    Вы не можете голосовать в опросах
    Вы не можете прикреплять файлы к сообщениям
    Вы можете скачивать файлы