Всегда рабочее зеркало без VPN и Proxy просто перед .vidak.icu напиши любое слово или цифру, Пример http://fatq.vidak.icu

MVO

Лицензия

1 сезон

1

1 сезон

iTunes

1 сезон

13

1 сезон

Deluxe

pack

Рекомендуем

Пиратка

30

ВАЖНО

RePack

MK11

RePack

jed

RePack

fifa19

RePack

RDR2

RePack

NEED FOR SPEED™ PAYBACK

Кинопоиск HD

6 сезон

 Острые козырьки 6 сезон

Все сериалы

все сериалы на PB.wtf

RePack

FAR CRY 5
  
Magnet ссылка

Многоэтажка (Антон Маслов) [2022, драма, триллер, WEB-DLRip-AVC] RUS [OKKO] от ExKinoRay pb.wtf

Многоэтажка через торрент pb.wtf

Раздают: 2 [ 28 KB/s ]
Размер: 1.75 GB | Добавлен: 3 мес. 26 д. назад | Торрент скачан:172 раза
Смотреть онлайн Многоэтажка | Скачать    Ребята, помогите собрать деньги на оплату серверов!!!

06-03-2022 09:18 Многоэтажка Скачать торрент  


Многоэтажка
Информация о фильме:
Название: Многоэтажка
Год выхода: 2022
Жанр: Триллер, драма
Режиссер: Антон Маслов
В ролях: Денис Никифоров, Дарья Щербакова (II), Наташа Швец (II), Наталья Земцова, Евгений Антропов, Татьяна Догилева, Михаил Жигалов, Мария Карпова, Андрей Шибаршин, Дмитрий Лысенков, Азамат Нигманов, Павел Ворожцов, Артур Ваха, Николай Шрайбер, Анна Котова-Дерябина, Юлия Волкова, Сергей Жарков, Елена Муравьёва, Дмитрий Мухамадеев, Иван Фоминов, Святослав Рогожан, Владимир Гарцунов, Игорь Савочкин, Андрей Курносов, Александр Аноприков, Марина Гришакова, Вадим Соснин, Полина Аниканова, Владислав Сыровацкий, Алёна Савастова, Алексия Белавина, Дмитрий Костяев, Николетта Шонус, Велина Лукьянова

Описание: Каждую субботу пожарный Антон Калашников встречает свою 14-летнюю дочь Киру с танцев. Телевизор, на ужин пельмени — стандартный набор развлечений от субботнего папы для девочки-подростка. Но в этот день все пошло не так. Кира звонит в домофон, Калашников открывает подъездную дверь, но в квартиру девочка не поднимается. Антону приходится просить помощи у соседей по бетонной коробке, пробиваясь сквозь человеческое безразличие и прошлые обиды.



Страна: Россия
Студия: START Studio
Продолжительность: 01:39:13
Перевод: Не требуется - ОККО



Информация о файле:
Кодек: AVC
Формат: MKV
Качество: WEB-DLRip-AVC
Видео: MPEG-4 AVC, 1024x426, 24.000 fps, 1750 kbps
Аудио RU: AC3, 6 ch, 48 kHz, 384 kbps | C цензурой
Аудио RU: AC3, 6 ch, 48 kHz, 384 kbps | Без цензуры 18+

x264 info: frame I:1135 Avg QP:10.65 size: 58942
x264 info: frame P:26712 Avg QP:13.11 size: 21881
x264 info: frame B:115030 Avg QP:14.83 size: 5645
General
Unique ID : 89309365201617132657361062675298122296 (0x43305BAAD7B3B6B92A3A3CD8E9EFFA38)
Complete name : D:uTorrentРипы wolf1245Mnogoetažka.2022.RUS.OKKO.WEB-DLRip-AVC.[wolf1245.ExKinoRay].mkv
Format : Matroska
Format version : Version 4
File size : 1.75 GiB
Duration : 1 h 39 min
Overall bit rate : 2 518 kb/s
Movie name : Mnogoetažka.2022.RUS.OKKO.WEB-DLRip-AVC.[wolf1245.ExKinoRay]
Encoded date : UTC 2022-03-06 09:07:42
Writing application : mkvmerge v65.0.0 ('Too Much') 64-bit
Writing library : libebml v1.4.2 + libmatroska v1.6.4
Video
ID : 1
Format : AVC
Format/Info : Advanced Video Codec
Format profile : High@L4.1
Format settings : CABAC / 12 Ref Frames
Format settings, CABAC : Yes
Format settings, Reference frames : 12 frames
Codec ID : V_MPEG4/ISO/AVC
Duration : 1 h 39 min
Bit rate : 1 750 kb/s
Width : 1 024 pixels
Height : 426 pixels
Display aspect ratio : 2.40:1
Frame rate mode : Constant
Frame rate : 24.000 FPS
Color space : YUV
Chroma subsampling : 4:2:0
Bit depth : 8 bits
Scan type : Progressive
Bits/(Pixel*Frame) : 0.167
Stream size : 1.21 GiB (69%)
Title : -=[wolf1245.ExKinoRay]=-
Writing library : x264 core 163 r3060 5db6aa6
Encoding settings : cabac=1 / ref=12 / deblock=1:-2:-2 / analyse=0x3:0x133 / me=umh / subme=9 / psy=1 / psy_rd=1.05:0.10 / mixed_ref=1 / me_range=32 / chroma_me=1 / trellis=2 / 8x8dct=1 / cqm=0 / deadzone=21,11 / fast_pskip=1 / chroma_qp_offset=-3 / threads=10 / lookahead_threads=2 / sliced_threads=0 / nr=0 / decimate=0 / interlaced=0 / bluray_compat=0 / constrained_intra=0 / bframes=10 / b_pyramid=2 / b_adapt=2 / b_bias=0 / direct=3 / weightb=1 / open_gop=0 / weightp=2 / keyint=240 / keyint_min=24 / scenecut=40 / intra_refresh=0 / rc_lookahead=60 / rc=2pass / mbtree=0 / bitrate=1750 / ratetol=1.0 / qcomp=0.60 / qpmin=0 / qpmax=69 / qpstep=4 / cplxblur=20.0 / qblur=0.5 / vbv_maxrate=50000 / vbv_bufsize=62500 / nal_hrd=none / filler=0 / ip_ratio=1.40 / pb_ratio=1.30 / aq=3:0.80
Language : Russian
Default : Yes
Forced : No
Color range : Limited
Color primaries : BT.709
Transfer characteristics : BT.709
Matrix coefficients : BT.709
Audio #1
ID : 2
Format : AC-3
Format/Info : Audio Coding 3
Commercial name : Dolby Digital
Codec ID : A_AC3
Duration : 1 h 39 min
Bit rate mode : Constant
Bit rate : 384 kb/s
Channel(s) : 6 channels
Channel layout : L R C LFE Ls Rs
Sampling rate : 48.0 kHz
Frame rate : 31.250 FPS (1536 SPF)
Compression mode : Lossy
Stream size : 273 MiB (15%)
Title : Original | Censored | OKKO
Language : Russian
Service kind : Complete Main
Default : Yes
Forced : Yes
Audio #2
ID : 3
Format : AC-3
Format/Info : Audio Coding 3
Commercial name : Dolby Digital
Codec ID : A_AC3
Duration : 1 h 39 min
Bit rate mode : Constant
Bit rate : 384 kb/s
Channel(s) : 6 channels
Channel layout : L R C LFE Ls Rs
Sampling rate : 48.0 kHz
Frame rate : 31.250 FPS (1536 SPF)
Compression mode : Lossy
Stream size : 273 MiB (15%)
Title : Original | 18+ | OKKO
Language : Russian
Service kind : Complete Main
Default : No
Forced : No
Релиз от:
Автор релиза:
pb.wtf



Скачать Многоэтажка через торрент https://i116.fastpic.org/big/2022/0303/3e/9d2cd359602397555e6084cc5fd3a23e.jpg Скачать, смотреть онлайн Многоэтажка бесплантно в хорошем качестве Описание: Каждую субботу пожарный Антон Калашников встречает свою 14-летнюю дочь Киру с танцев. Телевизор, на ужин пельмени — стандартный ... 10 10 5
Info! Золотая раздача, скачанное не засчитывается.
Торрент: Зарегистрирован [2022-03-06 09:18] · скачан: 172 раз
Статус: √ проверено
Размер: 1.75 GB
Как cкачать? Как скачать Многоэтажка через торрент | UTorrent

28-11-2019 20:33  

Отключить всю рекламу на сайте

    Дорогой пользователь! Огромная просьба, поблагодарите релизера, оцените раздачу и оставьте свои комментарий, если Вы скачали Многоэтажка через торрент бесплатно!
    Комментировать посты могут только пользователи прошедшие не сложную регистрацию
    Показать сообщения:    

    Многоэтажка через торрент
    Скачать бесплатно Многоэтажка
    Многоэтажка скачать торрент
    Многоэтажка смотреть онлайн
    Cкачать фильм Многоэтажка бесплатно
    Многоэтажка скачать торрент в хорошем качестве
    Многоэтажка смотреть онлайн бесплатно в хорошем качестве


    Вы не можете начинать темы
    Вы не можете отвечать на сообщения
    Вы не можете редактировать свои сообщения
    Вы не можете удалять свои сообщения
    Вы не можете голосовать в опросах
    Вы не можете прикреплять файлы к сообщениям
    Вы можете скачивать файлы