Всегда рабочее зеркало без VPN и Proxy просто перед .vidak.icu напиши любое слово или цифру, Пример http://59r8.vidak.icu

MVO

Лицензия

1 сезон

1

1 сезон

iTunes

1 сезон

13

1 сезон

Deluxe

pack

Рекомендуем

Пиратка

30

ВАЖНО

RePack

MK11

RePack

jed

RePack

fifa19

RePack

RDR2

RePack

NEED FOR SPEED™ PAYBACK

Кинопоиск HD

6 сезон

 Острые козырьки 6 сезон

Все сериалы

все сериалы на PB.wtf

RePack

FAR CRY 5

Anonymous, нам критически не хватает 2100 руб. на оплату серверов и переферии за МАЙ, помоги нам пожалуйста, вся надежда только на тебя. В благодарность мы отключим тебе всю рекламу на сайте!

×
  
Magnet ссылка

Я краснею / Turning Red (Доми Ши) [2022, Комедия, фэнтези, семейный, приключения, мультфильм, BDRip 1080p] MVO [Jaskier] pb.wtf

Я краснею через торрент pb.wtf

Раздают: 5 [ 252 KB/s ]
Размер: 12.3 GB | Добавлен: 2 мес. 5 д. назад | Торрент скачан:201 раз
Смотреть онлайн Я краснею | Скачать    Ребята, помогите собрать деньги на оплату серверов!!!

13-03-2022 17:16 Я краснею Скачать торрент  

Я краснею
Turning Red

Год выпуска: 2022
Страна: США
Выпущено: Pixar Animation Studios, Walt Disney Pictures
Жанр: Комедия, фэнтези, семейный, приключения, мультфильм
Продолжительность: 01:39:40
Перевод: Профессиональный (многоголосый) | Jaskier
Субтитры: Русские (Full), английские

Режиссер: Доми Ши

rating

В ролях: Розали Чян, Сандра О, Ава Морс, Майтреи Рамакришнан, Пак Хе-ин, Джеймс Хонг, Саша Ройз, Джордан Фишер, Финнеас О’Коннелл, Вай Чин Хо

Описание: 13-летней Мей Ли непросто дается подростковый возраст — девочка разрывается между своими проблемами и между тем, чтобы оставаться прилежной и любящей маминой дочкой. Но кроме перемен в собственном теле, в интересах и отношениях, Мей Ли сталкивается с еще одной очень странной своей особенностью. Всякий раз, когда она слишком волнуется (а с подростком это случается практически всегда), героиня тут же превращается в гигантскую красную панду.

Качество: BDRip 1080p
Формат: MKV

Видео: MPEG-4 AVC, 1920x1036, 16.6 Mbit/s, 23.976 fps
Аудио #01: 48 kHz, AC3, 5.1, 448 Kbps | Профессиональный многоголосый | Jaskier | RUS |
Аудио #02: 48 kHz, AC3, 5.1, 640 Kbps | Оригинал | ENG |
скриншот  скриншот  скриншот  скриншот  скриншот  

General
Unique ID : 272403815157974274860608148108472714016 (0xCCEF110360FAE2C92FDD68BEB9878320)
Complete name : D:Video1Turning.Red.2022.BDRip.1080p.seleZen.mkv
Format : Matroska
Format version : Version 4
File size : 12.3 GiB
Duration : 1 h 39 min
Overall bit rate : 17.7 Mb/s
Movie name : Turning Red 2022 from seleZen
Encoded date : UTC 2022-04-24 09:55:50
Writing application : mkvmerge v59.0.0 ('Shining Star') 64-bit
Writing library : libebml v1.4.2 + libmatroska v1.6.4

Video
ID : 1
Format : AVC
Format/Info : Advanced Video Codec
Format profile : High@L4.1
Format settings : CABAC / 4 Ref Frames
Format settings, CABAC : Yes
Format settings, Reference : 4 frames
Codec ID : V_MPEG4/ISO/AVC
Duration : 1 h 39 min
Bit rate : 16.6 Mb/s
Width : 1 920 pixels
Height : 1 036 pixels
Display aspect ratio : 1.85:1
Frame rate mode : Constant
Frame rate : 23.976 (24000/1001) FPS
Color space : YUV
Chroma subsampling : 4:2:0
Bit depth : 8 bits
Scan type : Progressive
Bits/(Pixel*Frame) : 0.348
Stream size : 11.5 GiB (94%)
Title : MTeam
Writing library : x264 core 157 r2938 2b00a84 TnP@MTeam Mod
Encoding settings : cabac=1 / ref=4 / deblock=1:-3:-3 / analyse=0x3:0x133 / me=umh / subme=10 / psy=1 / psy_rd=1.05:0.00 / mixed_ref=1 / me_range=32 / chroma_me=1 / trellis=2 / 8x8dct=1 / cqm=0 / deadzone=21,11 / fast_pskip=0 / chroma_qp_offset=-2 / threads=12 / lookahead_threads=2 / sliced_threads=0 / nr=0 / decimate=0 / interlaced=0 / bluray_compat=0 / constrained_intra=0 / bframes=8 / b_pyramid=2 / b_adapt=2 / b_bias=0 / direct=3 / weightb=1 / open_gop=0 / weightp=2 / keyint=250 / keyint_min=24 / scenecut=40 / intra_refresh=0 / rc_lookahead=250 / rc=crf / mbtree=0 / crf=16.8 / qcomp=0.60 / qpmin=0 / qpmax=69 / qpstep=4 / vbv_maxrate=62500 / vbv_bufsize=78125 / crf_max=0.0 / nal_hrd=none / filler=0 / ip_ratio=1.30 / pb_ratio=1.20 / aq=3:0.80
Language : English
Default : Yes
Forced : No
Color range : Limited
Color primaries : BT.709
Matrix coefficients : BT.709

Audio #1
ID : 2
Format : AC-3
Format/Info : Audio Coding 3
Commercial name : Dolby Digital
Codec ID : A_AC3
Duration : 1 h 39 min
Bit rate mode : Constant
Bit rate : 448 kb/s
Channel(s) : 6 channels
Channel layout : L R C LFE Ls Rs
Sampling rate : 48.0 kHz
Frame rate : 31.250 FPS (1536 SPF)
Compression mode : Lossy
Stream size : 319 MiB (3%)
Title : MVO [Jaskier]
Language : Russian
Service kind : Complete Main
Default : Yes
Forced : Yes

Audio #2
ID : 3
Format : AC-3
Format/Info : Audio Coding 3
Commercial name : Dolby Digital
Codec ID : A_AC3
Duration : 1 h 39 min
Bit rate mode : Constant
Bit rate : 640 kb/s
Channel(s) : 6 channels
Channel layout : L R C LFE Ls Rs
Sampling rate : 48.0 kHz
Frame rate : 31.250 FPS (1536 SPF)
Compression mode : Lossy
Stream size : 456 MiB (4%)
Title : Original
Language : English
Service kind : Complete Main
Default : No
Forced : No

Text #1
ID : 4
Format : UTF-8
Codec ID : S_TEXT/UTF8
Codec ID/Info : UTF-8 Plain Text
Duration : 1 h 37 min
Bit rate : 92 b/s
Count of elements : 1487
Stream size : 66.2 KiB (0%)
Title : Full [FOCS]
Language : Russian
Default : No
Forced : No

Text #2
ID : 5
Format : UTF-8
Codec ID : S_TEXT/UTF8
Codec ID/Info : UTF-8 Plain Text
Duration : 1 h 37 min
Bit rate : 58 b/s
Count of elements : 1694
Stream size : 42.0 KiB (0%)
Title : Full
Language : English
Default : No
Forced : No

Text #3
ID : 6
Format : UTF-8
Codec ID : S_TEXT/UTF8
Codec ID/Info : UTF-8 Plain Text
Duration : 1 h 38 min
Bit rate : 76 b/s
Count of elements : 2138
Stream size : 54.7 KiB (0%)
Title : SDH
Language : English
Default : No
Forced : No

Menu
00:00:00.000 : Chapter 01
00:03:18.323 : Chapter 02
00:06:09.494 : Chapter 03
00:09:26.816 : Chapter 04
00:10:48.481 : Chapter 05
00:15:19.210 : Chapter 06
00:16:06.549 : Chapter 07
00:19:56.111 : Chapter 08
00:23:50.721 : Chapter 09
00:26:51.902 : Chapter 10
00:31:08.783 : Chapter 11
00:36:04.704 : Chapter 12
00:37:58.401 : Chapter 13
00:39:56.018 : Chapter 14
00:42:44.812 : Chapter 15
00:45:28.434 : Chapter 16
00:48:08.427 : Chapter 17
00:50:08.130 : Chapter 18
00:52:51.876 : Chapter 19
00:55:07.887 : Chapter 20
00:56:27.592 : Chapter 21
00:59:53.506 : Chapter 22
01:01:54.001 : Chapter 23
01:03:31.432 : Chapter 24
01:05:53.240 : Chapter 25
01:11:10.224 : Chapter 26
01:14:42.144 : Chapter 27
01:18:46.179 : Chapter 28
01:21:37.350 : Chapter 29
01:26:53.791 : Chapter 30
01:28:56.956 : Chapter 31
01:38:38.328 : Chapter 32

pb.wtf



Скачать Я краснею через торрент https://i6.imageban.ru/out/2022/04/29/640019fb46bc31624608398d27918cdb.png Скачать, смотреть онлайн Я краснею бесплантно в хорошем качестве Описание: 13-летней Мей Ли непросто дается подростковый возраст — девочка разрывается между своими проблемами и между тем, чтобы оставаться ... 10 10 26
Info! Золотая раздача, скачанное не засчитывается.
Торрент: Зарегистрирован [2022-04-24 10:02] · скачан: 201 раз
Статус: √ проверено
Размер: 12.3 GB
Как cкачать? Как скачать Я краснею через торрент | UTorrent

% Раздел Тема Автор DL S | L
Иностранные мультфильмы [ 2.19 GB ] Я краснею / Turning Red [2022 мультфильм HDRip-AVC] MVO [Jaskier] bober100 Скачать
10 | 0
Зарубежные Мультфильмы (BDRip 1080p, 720p, Blu-ray, BD-Remux) [ 5.25 GB ] Я краснею / Turning Red [2022 мультфильм BDRip 720p] MVO [Jaskier] bober100 Скачать
6 | 0
Иностранные мультфильмы [ 1.46 GB ] Я краснею / Turning Red [2022 мультфильм WEB-DLRip] MVO [Jaskier] bober100 Скачать
23 | 0


Последний раз редактировалось: bober100 (2022-04-29 03:44), всего редактировалось 4 раз(а)

28-11-2019 20:33  

Отключить всю рекламу на сайте

21-03-2022 17:30 Я краснею Скачать торрент  

Практически Open Matte, указывать нужно в шапкеpb.wtf



25-04-2022 03:13 Я краснею Скачать торрент  

Ressident писал(а):

Практически Open Matte, указывать нужно в шапке

Не практически)
pb.wtf



    Дорогой пользователь! Огромная просьба, поблагодарите релизера, оцените раздачу и оставьте свои комментарий, если Вы скачали Я краснею через торрент бесплатно!
    Комментировать посты могут только пользователи прошедшие не сложную регистрацию
    Показать сообщения:    

    Я краснею через торрент
    Скачать бесплатно Я краснею
    Я краснею скачать торрент
    Я краснею смотреть онлайн
    Cкачать фильм Я краснею бесплатно
    Я краснею скачать торрент в хорошем качестве
    Я краснею смотреть онлайн бесплатно в хорошем качестве


    Вы не можете начинать темы
    Вы не можете отвечать на сообщения
    Вы не можете редактировать свои сообщения
    Вы не можете удалять свои сообщения
    Вы не можете голосовать в опросах
    Вы не можете прикреплять файлы к сообщениям
    Вы можете скачивать файлы