Всегда рабочее зеркало без VPN и Proxy просто перед .vidak.icu напиши любое слово или цифру, Пример http://8id2.vidak.icu

MVO

Лицензия

1 сезон

1

1 сезон

iTunes

1 сезон

13

1 сезон

Deluxe

pack

Рекомендуем

Пиратка

30

ВАЖНО

RePack

MK11

RePack

jed

RePack

fifa19

RePack

RDR2

RePack

NEED FOR SPEED™ PAYBACK

Кинопоиск HD

6 сезон

 Острые козырьки 6 сезон

Все сериалы

все сериалы на PB.wtf

RePack

FAR CRY 5

Anonymous, нам критически не хватает 2100 руб. на оплату серверов и переферии за МАЙ, помоги нам пожалуйста, вся надежда только на тебя. В благодарность мы отключим тебе всю рекламу на сайте!

×
  
Magnet ссылка

Пепел и пыль / Ash & Dust (Адриан Лэнгли) [2022, криминал, триллер, WEBRip-AVC] DVO [Pazl Voice] от ExKinoRay pb.wtf

Пепел и пыль через торрент pb.wtf

Раздают: 2 [ 0 KB/s ]
Размер: 1.24 GB | Добавлен: 3 мес. 9 д. назад | Торрент скачан:155 раз
Смотреть онлайн Пепел и пыль | Скачать    Ребята, помогите собрать деньги на оплату серверов!!!

15-03-2022 18:43 Пепел и пыль Скачать торрент  


Пепел и пыль / Ash & Dust
Информация о фильме:
Название: Пепел и пыль
Оригинальное название: Ash & Dust
Год выхода: 2022
Жанр: криминал, триллер
Режиссер: Адриан Лэнгли
В ролях: Майкл Своттон, Джон Эндрюс, Энн-Кэролайн Бинетт, Блейк Каннинг, Майкл Кларк, Дэйв Коулман, Мак Дэйл, Карли Фосетт, Кайла Мейер, Даг Филлипс, Саймон Филлипс, Джейсон Седлар, Оливия Тилли, Андиле Вин, Ник Бискупек

Описание: Две супружеские пары из маленького городка оказываются втянутыми в игру со смертью от рук злобной банды после того, как обнаруживают давным-давно закопанную таинственную коробку.



Страна: Канада
Студия: Dystopian Films, Grimehouse
Продолжительность: 01:24:31
Перевод: Любительский (двухголосый, закадровый) - Pazl Voice



Информация о файле:
Кодек: AVC
Формат: MKV
Качество: WEBRip-AVC
Видео: MPEG-4 AVC, 1024x426, 23.976 fps, 1550 kbps
Аудио RU: AC3, 2 ch, 48 kHz, 384 kbps
Аудио EN: AAC, 2 ch, 48 kHz, 168 kbps
Субтитры: Английские

x264 info: frame I:616 Avg QP:12.92 size: 60858
x264 info: frame P:26945 Avg QP:15.91 size: 18074
x264 info: frame B:94039 Avg QP:17.37 size: 4867
General
Unique ID : 273571104772887152629508455592239796492 (0xCDCFE0D5A7BD4ED2C4A4941DBE37910C)
Complete name : D:uTorrentРипы wolf1245Ash & Dust.2022.DVO.Pazl.x264.WEBRip-AVC.[wolf1245.ExKinoRay].mkv
Format : Matroska
Format version : Version 4
File size : 1.24 GiB
Duration : 1 h 24 min
Overall bit rate : 2 104 kb/s
Movie name : Ash & Dust.2022.DVO.Pazl.x264.WEBRip-AVC.[wolf1245.ExKinoRay]
Encoded date : UTC 2022-03-15 18:24:20
Writing application : mkvmerge v66.0.0 ('Josie') 64-bit
Writing library : libebml v1.4.2 + libmatroska v1.6.4
Video
ID : 1
Format : AVC
Format/Info : Advanced Video Codec
Format profile : High@L4.1
Format settings : CABAC / 10 Ref Frames
Format settings, CABAC : Yes
Format settings, Reference frames : 10 frames
Codec ID : V_MPEG4/ISO/AVC
Duration : 1 h 24 min
Bit rate : 1 550 kb/s
Width : 1 024 pixels
Height : 426 pixels
Display aspect ratio : 2.40:1
Frame rate mode : Constant
Frame rate : 23.976 (24000/1001) FPS
Color space : YUV
Chroma subsampling : 4:2:0
Bit depth : 8 bits
Scan type : Progressive
Bits/(Pixel*Frame) : 0.148
Stream size : 937 MiB (74%)
Title : -=[wolf1245.ExKinoRay]=-
Writing library : x264 core 163 r3060 5db6aa6
Encoding settings : cabac=1 / ref=10 / deblock=1:-3:-2 / analyse=0x3:0x133 / me=umh / subme=11 / psy=1 / psy_rd=1.02:0.15 / mixed_ref=1 / me_range=32 / chroma_me=1 / trellis=2 / 8x8dct=1 / cqm=0 / deadzone=22,11 / fast_pskip=1 / chroma_qp_offset=-3 / threads=10 / lookahead_threads=2 / sliced_threads=0 / nr=0 / decimate=0 / interlaced=0 / bluray_compat=0 / constrained_intra=0 / bframes=10 / b_pyramid=2 / b_adapt=2 / b_bias=0 / direct=3 / weightb=1 / open_gop=0 / weightp=2 / keyint=240 / keyint_min=24 / scenecut=40 / intra_refresh=0 / rc_lookahead=60 / rc=2pass / mbtree=0 / bitrate=1550 / ratetol=1.0 / qcomp=0.60 / qpmin=0 / qpmax=69 / qpstep=4 / cplxblur=20.0 / qblur=0.5 / vbv_maxrate=50000 / vbv_bufsize=62500 / nal_hrd=none / filler=0 / ip_ratio=1.40 / pb_ratio=1.30 / aq=3:0.80
Language : English
Default : Yes
Forced : No
Color range : Limited
Color primaries : BT.709
Transfer characteristics : BT.709
Matrix coefficients : BT.709
Audio #1
ID : 2
Format : AC-3
Format/Info : Audio Coding 3
Commercial name : Dolby Digital
Codec ID : A_AC3
Duration : 1 h 24 min
Bit rate mode : Constant
Bit rate : 384 kb/s
Channel(s) : 2 channels
Channel layout : L R
Sampling rate : 48.0 kHz
Frame rate : 31.250 FPS (1536 SPF)
Compression mode : Lossy
Stream size : 232 MiB (18%)
Title : DVO | Pazl Voice | RUS
Language : Russian
Service kind : Complete Main
Default : Yes
Forced : No
Audio #2
ID : 3
Format : AAC LC
Format/Info : Advanced Audio Codec Low Complexity
Codec ID : A_AAC-2
Duration : 1 h 24 min
Bit rate : 168 kb/s
Channel(s) : 2 channels
Channel layout : L R
Sampling rate : 48.0 kHz
Frame rate : 46.875 FPS (1024 SPF)
Compression mode : Lossy
Stream size : 102 MiB (8%)
Title : Original | ENG
Language : English
Default : No
Forced : No
Text
ID : 4
Format : UTF-8
Codec ID : S_TEXT/UTF8
Codec ID/Info : UTF-8 Plain Text
Duration : 1 h 11 min
Bit rate : 7 b/s
Count of elements : 178
Stream size : 3.88 KiB (0%)
Language : English
Default : No
Forced : No
Релиз от:
Автор релиза:
pb.wtf



Скачать Пепел и пыль через торрент https://i116.fastpic.org/big/2022/0314/5b/bc05e9baa408d37302aeca1fb4c2735b.jpeg Скачать, смотреть онлайн Пепел и пыль бесплантно в хорошем качестве Описание: Две супружеские пары из маленького городка оказываются втянутыми в игру со смертью от рук злобной банды после того, как ... 10 10 4
Торрент: Зарегистрирован [2022-03-15 18:43] · скачан: 155 раз
Статус: T временная
Размер: 1.24 GB
Как cкачать? Как скачать Пепел и пыль через торрент | UTorrent

28-11-2019 20:33  

Отключить всю рекламу на сайте

    Дорогой пользователь! Огромная просьба, поблагодарите релизера, оцените раздачу и оставьте свои комментарий, если Вы скачали Пепел и пыль через торрент бесплатно!
    Комментировать посты могут только пользователи прошедшие не сложную регистрацию
    Показать сообщения:    

    Пепел и пыль через торрент
    Скачать бесплатно Пепел и пыль
    Пепел и пыль скачать торрент
    Пепел и пыль смотреть онлайн
    Cкачать фильм Пепел и пыль бесплатно
    Пепел и пыль скачать торрент в хорошем качестве
    Пепел и пыль смотреть онлайн бесплатно в хорошем качестве


    Вы можете начинать темы
    Вы можете отвечать на сообщения
    Вы не можете редактировать свои сообщения
    Вы не можете удалять свои сообщения
    Вы не можете голосовать в опросах
    Вы не можете прикреплять файлы к сообщениям
    Вы можете скачивать файлы