Всегда рабочее зеркало без VPN и Proxy просто перед .vidak.icu напиши любое слово или цифру, Пример http://02jb.vidak.icu

MVO

MVO

1 сезон

1

1 сезон

iTunes

1 сезон

13

1 сезон

Deluxe

pack

Рекомендуем

Repack

30

ВАЖНО

RePack

MK11

RePack

jed

RePack

fifa19

RePack

RDR2

RePack

NEED FOR SPEED™ PAYBACK

Кинопоиск HD

6 сезон

 Острые козырьки 6 сезон

Все сериалы

все сериалы на PB.wtf

RePack

FAR CRY 5
  
Magnet ссылка

Жажда золота / Gold (Энтони Хэйес) [2022, Боевик, триллер, BDRip 1080p] DUB [Марафон / Кинопоиск HD] pb.wtf

Жажда золота через торрент pb.wtf

Раздают: 1 [ 0 KB/s ]
Размер: 8.16 GB | Добавлен: 3 мес. 11 д. назад | Торрент скачан:66 раз
Смотреть онлайн Жажда золота | Скачать    Ребята, помогите собрать деньги на оплату серверов!!!

17-03-2022 06:05 Жажда золота Скачать торрент  

Жажда золота
Gold

Год выпуска: 2022
Страна: Австралия
Студия: Deeper Water, Ingenious Media, Pump Metal Films, Rogue Star Productions, SunJive Studios
Жанр: Боевик, триллер
Продолжительность: 01:36:42
Перевод: Дублированный | Марафон | Кинопоиск HD
Субтитры: Русские (Full), английские

Режиссер: Энтони Хэйес

rating

В ролях: Зак Эфрон, Энтони Хэйес, Сьюзи Портер, Акуол Нгот, Тиик Биар, Андреас Собик

Описание: В недалеком будущем мир превратился в одну огромную пустыню. Два незнакомца случайно обнаруживают огромные залежи золота. Пока один из них отправляется за техникой, чтобы добыть драгоценный металл из земли, второй остается караулить богатство. Изнемогая под палящим солнцем, без еды и воды, отбиваясь от хищников и агрессивных путников, герой проходит жесточайшее испытание на прочность.

Качество: BDRip 1080p
Формат: MKV

Видео: MPEG-4 AVC, 1920x802, 10.5 Mbit/s, 24.000 fps
Аудио #01: 48 kHz, AC3, 5.1, 448 Kbps | Дублированный | Марафон | RUS |
Аудио #02: 48 kHz, E-AC3, 5.1, 448 Kbps | Дублированный | Марафон | RUS |
Аудио #03: 48 kHz, AC3, 5.1, 640 Kbps | Оригинал | ENG |
скриншот  скриншот  скриншот  скриншот  скриншот  

General
Unique ID : 263848786748789005642142719327894501144 (0xC67F6D8C190C76040C3A5BFFB0A3F718)
Complete name : D:Video1Gold.2022.BDRip.1080p.seleZen.mkv
Format : Matroska
Format version : Version 4
File size : 8.16 GiB
Duration : 1 h 36 min
Overall bit rate : 12.1 Mb/s
Movie name : Gold 2022 from seleZen
Encoded date : UTC 2022-04-27 21:14:14
Writing application : mkvmerge v59.0.0 ('Shining Star') 64-bit
Writing library : libebml v1.4.2 + libmatroska v1.6.4

Video
ID : 1
Format : AVC
Format/Info : Advanced Video Codec
Format profile : [email protected]
Format settings : CABAC / 5 Ref Frames
Format settings, CABAC : Yes
Format settings, Reference : 5 frames
Codec ID : V_MPEG4/ISO/AVC
Duration : 1 h 36 min
Bit rate : 10.5 Mb/s
Width : 1 920 pixels
Height : 802 pixels
Display aspect ratio : 2.40:1
Frame rate mode : Constant
Frame rate : 24.000 FPS
Color space : YUV
Chroma subsampling : 4:2:0
Bit depth : 8 bits
Scan type : Progressive
Bits/(Pixel*Frame) : 0.285
Stream size : 7.12 GiB (87%)
Writing library : x264 core 146 -from seleZen
Encoding settings : cabac=1 / ref=5 / deblock=1:-2:-2 / analyse=0x3:0x133 / me=umh / subme=10 / psy=1 / psy_rd=1.02:0.03 / mixed_ref=1 / me_range=32 / chroma_me=1 / trellis=2 / 8x8dct=1 / cqm=0 / deadzone=21,11 / fast_pskip=0 / chroma_qp_offset=-3 / threads=48 / lookahead_threads=6 / sliced_threads=0 / nr=0 / decimate=0 / interlaced=0 / bluray_compat=0 / constrained_intra=0 / bframes=9 / b_pyramid=2 / b_adapt=2 / b_bias=0 / direct=3 / weightb=1 / open_gop=0 / weightp=2 / keyint=240 / keyint_min=23 / scenecut=40 / intra_refresh=0 / rc_lookahead=50 / rc=2pass / mbtree=0 / bitrate=10547 / ratetol=1.0 / qcomp=0.60 / qpmin=0 / qpmax=51 / qpstep=4 / cplxblur=20.0 / qblur=0.5 / vbv_maxrate=50000 / vbv_bufsize=62500 / nal_hrd=none / filler=0 / ip_ratio=1.40 / pb_ratio=1.30 / aq=3:0.80
Language : English
Default : Yes
Forced : No

Audio #1
ID : 2
Format : AC-3
Format/Info : Audio Coding 3
Commercial name : Dolby Digital
Codec ID : A_AC3
Duration : 1 h 36 min
Bit rate mode : Constant
Bit rate : 448 kb/s
Channel(s) : 6 channels
Channel layout : L R C LFE Ls Rs
Sampling rate : 48.0 kHz
Frame rate : 31.250 FPS (1536 SPF)
Compression mode : Lossy
Stream size : 309 MiB (4%)
Title : Dub
Language : Russian
Service kind : Complete Main
Default : Yes
Forced : Yes

Audio #2
ID : 3
Format : E-AC-3
Format/Info : Enhanced AC-3
Commercial name : Dolby Digital Plus
Codec ID : A_EAC3
Duration : 1 h 36 min
Bit rate mode : Constant
Bit rate : 448 kb/s
Channel(s) : 6 channels
Channel layout : L R C LFE Ls Rs
Sampling rate : 48.0 kHz
Frame rate : 31.250 FPS (1536 SPF)
Compression mode : Lossy
Stream size : 309 MiB (4%)
Title : Dub
Language : Russian
Service kind : Complete Main
Default : No
Forced : No

Audio #3
ID : 4
Format : AC-3
Format/Info : Audio Coding 3
Commercial name : Dolby Digital
Codec ID : A_AC3
Duration : 1 h 36 min
Bit rate mode : Constant
Bit rate : 640 kb/s
Channel(s) : 6 channels
Channel layout : L R C LFE Ls Rs
Sampling rate : 48.0 kHz
Frame rate : 31.250 FPS (1536 SPF)
Compression mode : Lossy
Stream size : 442 MiB (5%)
Title : Original
Language : English
Service kind : Complete Main
Default : No
Forced : No

Text #1
ID : 5
Format : UTF-8
Codec ID : S_TEXT/UTF8
Codec ID/Info : UTF-8 Plain Text
Duration : 1 h 26 min
Bit rate : 29 b/s
Count of elements : 398
Stream size : 18.5 KiB (0%)
Title : Full
Language : Russian
Default : No
Forced : No

Text #2
ID : 6
Format : UTF-8
Codec ID : S_TEXT/UTF8
Codec ID/Info : UTF-8 Plain Text
Duration : 1 h 36 min
Bit rate : 25 b/s
Count of elements : 744
Stream size : 18.0 KiB (0%)
Language : English
Default : No
Forced : No

Menu
00:00:00.000 : Глава 01
00:09:39.208 : Глава 02
00:16:58.417 : Глава 03
00:26:21.167 : Глава 04
00:38:04.917 : Глава 05
00:44:34.875 : Глава 06
00:54:53.375 : Глава 07
01:06:27.583 : Глава 08
01:15:22.500 : Глава 09
01:25:15.542 : Глава 10

pb.wtf



Скачать Жажда золота через торрент https://i116.fastpic.org/big/2022/0317/ed/afef168d2bbb5c536e80a39f706297ed.jpg Скачать, смотреть онлайн Жажда золота бесплантно в хорошем качестве Описание: В недалеком будущем мир превратился в одну огромную пустыню. Два незнакомца случайно обнаруживают огромные залежи золота. Пока ... 9.8 10 9
Торрент: Зарегистрирован [2022-04-27 22:07] · скачан: 66 раз
Статус: √ проверено
Размер: 8.16 GB
Как cкачать? Как скачать Жажда золота через торрент | UTorrent

% Раздел Тема Автор DL S | L
Фильмы (WEB-DL 720p, 1080p) [ 4.84 GB ] Жажда золота / Gold [2022 WEB-DL 1080p] 2xMVO [Jaskier NewComers] +AVO [BadBajo] bober100 Скачать
2 | 0
Фильмы 2021 [DVDrip, WEB-DLRip, HDrip] (DUB, MVO) [ 747 MB ] Жажда золота / Gold [2022 HDRip] DUB [Марафон / Кинопоиск HD] bober100 Скачать
1 | 0
Фильмы (Blu-ray, BD-Remux, HDDVD) [ 25.07 GB ] Жажда золота / Gold [2022 BD Remux 1080p] DUB [Марафон / Кинопоиск HD] bober100 Скачать
1 | 0
Фильмы 2022 [DVDrip, WEB-DLRip, HDrip] (DUB, MVO) [ 1.46 GB ] Жажда золота / Gold [2022 WEB-DLRip] DUB [Марафон / Кинопоиск HD] bober100 Скачать
2 | 0
Ultra HD (UHD: 2K, 4K, 8K) — видео сверхвысокой чёткости [ 9.38 GB ] Жажда золота / Gold [2022 UHD WEB-DL-HEVC 2160p] DUB [Марафон / Кинопоиск HD] bober100 Скачать
1 | 0
Фильмы [HD 720p, 1080p] (Хороший звук DUB, MVO) [ 4.52 GB ] Жажда золота / Gold [2022 BDRip 720p] DUB [Марафон / Кинопоиск HD] bober100 Скачать
1 | 0
Фильмы 2022 [DVDrip, WEB-DLRip, HDrip] (DUB, MVO) [ 1.46 GB ] Жажда золота / Gold [2022 WEB-DLRip] MVO [NewComers] Twi7ter Скачать
3 | 0

28-11-2019 20:33  

Отключить вcю реклaмy на сайте

29-04-2022 13:29 Жажда золота Скачать торрент  

можно смотреть. кено про жадность, которая до добра не доводит.pb.wtf



    Дорогой пользователь! Огромная просьба, поблагодарите релизера, оцените раздачу и оставьте свои комментарий, если Вы скачали Жажда золота через торрент бесплатно!
    Комментировать посты могут только пользователи прошедшие не сложную регистрацию
    Показать сообщения:    

    Жажда золота через торрент
    Скачать бесплатно Жажда золота
    Жажда золота скачать торрент
    Жажда золота смотреть онлайн
    Cкачать фильм Жажда золота бесплатно
    Жажда золота скачать торрент в хорошем качестве
    Жажда золота смотреть онлайн бесплатно в хорошем качестве


    Вы не можете начинать темы
    Вы не можете отвечать на сообщения
    Вы не можете редактировать свои сообщения
    Вы не можете удалять свои сообщения
    Вы не можете голосовать в опросах
    Вы не можете прикреплять файлы к сообщениям
    Вы можете скачивать файлы