Доктор Стрэндж

Лицензия

Добыча

Дубляж

Дом дракона

1 сезон

Тор

Дубляж

В эфире

Дубляж

Там, где раки поют

MVO

Властелин колец

1 сезон

Deluxe

pack

Рекомендуем

30

Пиратка

ВАЖНО

ВАЖНО

Ghostwire

Пиратка

jed

RePack

nioh2

RePack

RDR2

RePack

NEED FOR SPEED™ PAYBACK

RePack

скачать торрент

Кинопоиск HD

Острые козырьки 6 сезон

6 сезон

FAR CRY 6

RePack

скачать торрент

Лицензия

скачать торрент

MVO

1

1 сезон

скачать торрент

1 сезон

скачать торрент

Лицензия

  

День слепого Валентина (Александр Баршак) [2022, Комедия, мелодрама, WEB-DL 720p] [ОККО]

День слепого Валентина через торрент pb.wtf

Размер: 2.65 GB | Добавлен: 8 мес. назад | Торрент скачан:100 раз
Смотреть онлайн | Скачать   

18-03-2022 03:35 День слепого Валентина Скачать торрент  

День слепого Валентина
Год выпуска: 2022
Страна: Россия
Производство: Кинокомпания «Кедр Про», Маруся Продакшн
Жанр: Комедия, мелодрама
Продолжительность: 01:51:53
Перевод: Не требуется | ОККО
Субтитры: отсутствуют

Режиссер: Александр Баршак

rating

В ролях: Максим Виторган, Марк Богатырев, Олеся Судзиловская, Александр Яценко, Марина Петренко, Роман Мадянов, Кирилл Плетнёв, Юрий Чурсин, Наталья Земцова, Валентина Мазунина, Анна Цуканова-Котт, Вероника Тимофеева, Мария Шалаева, Бесо Гатаев, Александр Лойе, Дарья Коныжева, Александр Яцко, Анастасия Весёлкина, Ольга Виниченко, Анна Якунина, Наталья Тетенова, Александр Обласов, Ева Смирнова, Ольга Рыжкова, Антон Васильев, Павел Рассомахин, Данила Рассомахин, Мария Говорова, Александр Сибирцев, Сергей Климов, Марина Коломина, Нелли Подкопаева, Адель Трегулов

Описание: В любых отношениях случаются кризисы. Самый романтичный день в году приготовил героям серьёзные испытания. Найдут ли они в себе силы справиться? Или испугаются и разойдутся? Фильм о том, что настоящая любовь способна победить всё, даже если стрела Амура случайно попала не туда...

Качество: WEB-DL 720p
Формат: MKV

Видео: MPEG-4 AVC, ~ 3200 Кбит/с, 1280x528
Аудио: 48.0 kHz, AC3 Dolby Digital, 2/0 (L,R) ch, ~ 192 kbps

Общее
Уникальный идентификатор : 138167018016075523094100489869990077403 (0x67F1FFEE762A8FCEC0AB06418EE0A3DB)
Полное имя : D:Den.slepogo.Valentina.2022.WEB-DL.720p.ELEKTRI4KA.UNIONGANG.mkv
Формат : Matroska
Версия формата : Version 4
Размер файла : 2,65 Гбайт
Продолжительность : 1 ч. 51 м.
Общий поток : 3 388 Кбит/сек
Название фильма : Den.slepogo.Valentina.2022.WEB-DL.720p.ELEKTRI4KA.UNIONGANG
Дата кодирования : UTC 2022-03-18 02:33:08
Программа кодирования : mkvmerge v66.0.0 ('Josie') 64-bit
Библиотека кодирования : libebml v1.4.2 + libmatroska v1.6.4
Attachments : poster.jpg

Видео
Идентификатор : 1
Формат : AVC
Формат/Информация : Advanced Video Codec
Профиль формата : [email protected]
Настройки формата : CABAC / 3 Ref Frames
Параметр CABAC формата : Да
Параметр RefFrames формата : 3 кадра
Идентификатор кодека : V_MPEG4/ISO/AVC
Продолжительность : 1 ч. 51 м.
Битрейт : 3 200 Кбит/сек
Ширина : 1 280 пикселей
Высота : 528 пикселей
Соотношение сторон : 2,40:1
Соотношение сторон в оригинале : 2,40:1
Режим частоты кадров : Постоянный
Частота кадров : 24,000 кадра/сек
Цветовое пространство : YUV
Субдискретизация насыщенности : 4:2:0
Битовая глубина : 8 бит
Тип развёртки : Прогрессивная
Бит/(Пиксели*Кадры) : 0.197
Размер потока : 2,50 Гбайт (94%)
Библиотека кодирования : x264 core 161 r3048 b86ae3c
Настройки программы : cabac=1 / ref=2 / deblock=1:1:1 / analyse=0x3:0x133 / me=umh / subme=9 / psy=1 / psy_rd=0.40:1.00 / mixed_ref=1 / me_range=24 / chroma_me=1 / trellis=0 / 8x8dct=1 / cqm=0 / deadzone=21,11 / fast_pskip=1 / chroma_qp_offset=-2 / threads=16 / lookahead_threads=1 / sliced_threads=0 / nr=0 / decimate=1 / interlaced=0 / bluray_compat=0 / constrained_intra=0 / bframes=3 / b_pyramid=1 / b_adapt=1 / b_bias=0 / direct=3 / weightb=1 / open_gop=0 / weightp=2 / keyint=72 / keyint_min=37 / scenecut=0 / intra_refresh=0 / rc_lookahead=30 / rc=2pass / mbtree=1 / bitrate=3200 / ratetol=1.0 / qcomp=0.80 / qpmin=1 / qpmax=69 / qpstep=4 / cplxblur=20.0 / qblur=0.5 / vbv_maxrate=4800 / vbv_bufsize=6400 / nal_hrd=none / filler=0 / ip_ratio=1.40 / aq=1:1.00
Default : Да
Forced : Нет
Цветовой диапазон : Limited
Основные цвета : BT.709
Коэффициенты матрицы : BT.709

Аудио
Идентификатор : 2
Формат : AC-3
Формат/Информация : Audio Coding 3
Коммерческое название : Dolby Digital
Идентификатор кодека : A_AC3
Продолжительность : 1 ч. 51 м.
Вид битрейта : Постоянный
Битрейт : 192 Кбит/сек
Каналы : 2 канала
Channel layout : L R
Частота : 48,0 КГц
Частота кадров : 31,250 кадров/сек (1536 SPF)
Метод сжатия : С потерями
Размер потока : 154 Мбайт (6%)
Service kind : Complete Main
Default : Да
Forced : Нет




Скачать День слепого Валентина через торрент https://i1-imageban-ru.translate.goog/out/2022/03/17/0daff2b1c8b056c6c4bad2d04a0fb624.jpg Скачать, смотреть онлайн День слепого Валентина бесплантно в хорошем качестве Описание: В любых отношениях случаются кризисы. Самый романтичный день в году приготовил героям серьёзные испытания. Найдут ли они в себе ... 7.8 10 9
Торрент: Зарегистрирован [2022-03-18 03:35] · скачан: 100 раз
Статус: T временная
Размер: 2.65 GB
Как cкачать? Как скачать День слепого Валентина через торрент | UTorrent

% Раздел Тема Автор DL S | L
T Наши новые фильмы 2020 - 2022 [ 1.47 GB ] День слепого Валентина | | DLRip bober100 Скачать
2 | 0
T Наши фильмы (HD, WEB-DL 720p, 1080p) [ 4.05 GB ] День слепого Валентина | | 1080p bober100 Скачать
1 | 0

28-11-2019 20:33  


Отключить вcю реклaмy на сайте, в т.ч. и в плеере онлайн просмотра!

    Дорогой пользователь! Огромная просьба, поблагодарите релизера, оцените раздачу и оставьте свои комментарий, если Вы скачали День слепого Валентина через торрент бесплатно!!
    Комментировать посты могут только пользователи прошедшие не сложную регистрацию
    Показать сообщения:    


    День слепого Валентина через торрент
    Скачать бесплатно День слепого Валентина
    День слепого Валентина скачать торрент
    День слепого Валентина смотреть онлайн
    Cкачать фильм День слепого Валентина бесплатно
    День слепого Валентина скачать торрент в хорошем качестве
    День слепого Валентина смотреть онлайн бесплатно в хорошем качестве
    Вы не можете начинать темы
    Вы не можете отвечать на сообщения
    Вы не можете редактировать свои сообщения
    Вы не можете удалять свои сообщения
    Вы не можете голосовать в опросах
    Вы не можете прикреплять файлы к сообщениям
    Вы можете скачивать файлы
    День слепого Валентина [2022, Комедия, мелодрама, WEB-DL 720p] [ОККО] смотреть онлайн, скачать торрент picoco.icu