Доктор Стрэндж

Лицензия

Добыча

Дубляж

Дом дракона

1 сезон

Тор

Дубляж

В эфире

Дубляж

Там, где раки поют

MVO

Властелин колец

1 сезон

Ultimate

pack

Рекомендуем

30

Пиратка

ВАЖНО

ВАЖНО

Ghostwire

Пиратка

jed

RePack

nioh2

RePack

RDR2

RePack

NEED FOR SPEED™ PAYBACK

RePack

скачать торрент

Кинопоиск HD

Острые козырьки 6 сезон

6 сезон

FAR CRY 6

RePack

скачать торрент

Лицензия

скачать торрент

MVO

1

1 сезон

скачать торрент

1 сезон

скачать торрент

Лицензия

  

Мой папа не подарок (Александр Карпиловский, Родион Николайчук) [2021, комедия, семейный, WEB-DLRip-AVC] RUS [KION] от ExKinoRay

Мой папа не подарок через торрент pb.wtf

Размер: 1.89 GB | Добавлен: 10 мес. назад | Торрент скачан:43 раза
Смотреть онлайн | Скачать   

02-01-2022 14:53 Мой папа не подарок Скачать торрент  


Мой папа не подарок
Название: Мой папа не подарок
Год выхода: 2021
Жанр: комедия, семейный
Режиссер: Александр Карпиловский, Родион Николайчук

В ролях: Никита Табунщик, Полина Гухман, Тимофей Трибунцев, Ольга Медынич, Алексей Кравченко, Максим Лагашкин, Дмитрий Вьюшкин, Анастасия Калашникова, Екатерина Стулова, Виктор Васильев

Описание: Макс никогда в жизни так не ждал Нового года. Косплей-фестиваль геймеров! Приз лучшего игрока! Но вдруг на его пути возникает дерзкая девчонка Венера и ее суровая мама-полицейский. Однако Макса не остановить. Он всё сделает, чтобы оказаться на Косплее. Выиграет гонку на супердронах. Обезвредит таинственного злодея. Провернёт ограбление и спасёт отца от банкротства. И ничего бы этого не произошло, если бы не изобретение его папы - фантастический и фантастически смышлёный дрон с повадками милого зверька.



Страна: Россия
Студия: Киностудия КИТ
Продолжительность: 01:44:23
Перевод: Не требуется (Русский) - KION



Информация о файле:
Кодек: AVC
Формат: MKV
Качество: WEB-DLRip-AVC
Видео: MPEG-4 AVC, 1024x428, 24.000 fps, 1950 kb/s
Аудио RU: AC3, 6 ch, 48 kHz, 448 kbps

семпл
x264 info: frame I:1682 Avg QP:16.20 size: 57518
x264 info: frame P:41420 Avg QP:20.01 size: 19797
x264 info: frame B:107221 Avg QP:22.05 size: 5684
x264 info: consecutive B-frames: 5.2% 4.5% 15.6% 35.7% 20.6% 15.7% 1.3% 0.3% 0.2% 0.4% 0.4%
General
Unique ID : 88527542353594803864720239747698499928 (0x4299C8D32B34A6B31FF4A09F460FA158)
Complete name : D:uTorrentРипы wolf1245Moy.papa.ne.podarok.2021.RUS.WEB-DLRip-AVC.[wolf1245.ExKinoRay].mkv
Format : Matroska
Format version : Version 4
File size : 1.89 GiB
Duration : 1 h 44 min
Overall bit rate : 2 591 kb/s
Movie name : Moy.papa.ne.podarok.2021.RUS.WEB-DLRip-AVC.[wolf1245.ExKinoRay]
Encoded date : UTC 2022-01-02 14:37:16
Writing application : mkvmerge v64.0.0 ('Willows') 64-bit
Writing library : libebml v1.4.2 + libmatroska v1.6.4
Video
ID : 1
Format : AVC
Format/Info : Advanced Video Codec
Format profile : [email protected]
Format settings : CABAC / 10 Ref Frames
Format settings, CABAC : Yes
Format settings, Reference frames : 10 frames
Codec ID : V_MPEG4/ISO/AVC
Duration : 1 h 44 min
Bit rate : 1 950 kb/s
Width : 1 024 pixels
Height : 428 pixels
Display aspect ratio : 2.40:1
Frame rate mode : Constant
Frame rate : 24.000 FPS
Color space : YUV
Chroma subsampling : 4:2:0
Bit depth : 8 bits
Scan type : Progressive
Bits/(Pixel*Frame) : 0.185
Stream size : 1.42 GiB (75%)
Title : -=[wolf1245.ExKinoRay]=-
Writing library : x264 core 163 r3060 5db6aa6
Encoding settings : cabac=1 / ref=10 / deblock=1:-3:-2 / analyse=0x3:0x133 / me=umh / subme=10 / psy=1 / psy_rd=1.05:0.15 / mixed_ref=1 / me_range=32 / chroma_me=1 / trellis=2 / 8x8dct=1 / cqm=0 / deadzone=21,11 / fast_pskip=1 / chroma_qp_offset=-3 / threads=10 / lookahead_threads=2 / sliced_threads=0 / nr=0 / decimate=0 / interlaced=0 / bluray_compat=0 / constrained_intra=0 / bframes=10 / b_pyramid=2 / b_adapt=2 / b_bias=0 / direct=3 / weightb=1 / open_gop=0 / weightp=2 / keyint=240 / keyint_min=24 / scenecut=40 / intra_refresh=0 / rc_lookahead=60 / rc=2pass / mbtree=0 / bitrate=1950 / ratetol=1.0 / qcomp=0.60 / qpmin=0 / qpmax=69 / qpstep=4 / cplxblur=20.0 / qblur=0.5 / vbv_maxrate=50000 / vbv_bufsize=62500 / nal_hrd=none / filler=0 / ip_ratio=1.40 / pb_ratio=1.30 / aq=3:0.80
Language : Russian
Default : Yes
Forced : No
Audio
ID : 2
Format : AC-3
Format/Info : Audio Coding 3
Commercial name : Dolby Digital
Codec ID : A_AC3
Duration : 1 h 44 min
Bit rate mode : Constant
Bit rate : 448 kb/s
Channel(s) : 6 channels
Channel layout : L R C LFE Ls Rs
Sampling rate : 48.0 kHz
Frame rate : 31.250 FPS (1536 SPF)
Compression mode : Lossy
Stream size : 478 MiB (25%)
Title : Original | (KION) | RUS
Language : Russian
Service kind : Complete Main
Default : Yes
Forced : Yes
Релиз от: VK релиз-группы




Скачать Мой папа не подарок через торрент https://i3-imageban-ru.translate.goog/out/2022/01/01/5f8d126f916407336d07e5c4f3d55816.jpg Скачать, смотреть онлайн Мой папа не подарок бесплантно в хорошем качестве Описание: Макс никогда в жизни так не ждал Нового года. Косплей-фестиваль геймеров! Приз лучшего игрока! Но вдруг на его пути возникает ... 10 10 2
Торрент: Зарегистрирован [2022-01-02 14:53] · скачан: 43 раз
Статус: √ проверено
Размер: 1.89 GB
Как cкачать? Как скачать Мой папа не подарок через торрент | UTorrent

% Раздел Тема Автор DL S | L
Детские отечественные фильмы [ 4.92 GB ] Мой папа не подарок | | 1080p bober100 Скачать
1 | 0
Детские отечественные фильмы [ 1.46 GB ] Мой папа не подарок | | DLRip bober100 Скачать
1 | 0

28-11-2019 20:33  


Отключить вcю реклaмy на сайте, в т.ч. и в плеере онлайн просмотра!

20-03-2022 07:01 Мой папа не подарок Скачать торрент  

ну так...



    Дорогой пользователь! Огромная просьба, поблагодарите релизера, оцените раздачу и оставьте свои комментарий, если Вы скачали Мой папа не подарок через торрент бесплатно!!
    Комментировать посты могут только пользователи прошедшие не сложную регистрацию
    Показать сообщения:    


    Мой папа не подарок через торрент
    Скачать бесплатно Мой папа не подарок
    Мой папа не подарок скачать торрент
    Мой папа не подарок смотреть онлайн
    Cкачать фильм Мой папа не подарок бесплатно
    Мой папа не подарок скачать торрент в хорошем качестве
    Мой папа не подарок смотреть онлайн бесплатно в хорошем качестве
    Вы не можете начинать темы
    Вы не можете отвечать на сообщения
    Вы не можете редактировать свои сообщения
    Вы не можете удалять свои сообщения
    Вы не можете голосовать в опросах
    Вы не можете прикреплять файлы к сообщениям
    Вы можете скачивать файлы
    Мой папа не подарок [2021, комедия, семейный, WEB-DLRip-AVC] RUS [KION] от ExKinoRay смотреть онлайн, скачать торрент picoco.icu