Всегда рабочее зеркало без VPN и Proxy просто перед .vidak.icu напиши любое слово или цифру, Пример http://ffjd.vidak.icu

MVO

Лицензия

1 сезон

1

1 сезон

iTunes

1 сезон

13

1 сезон

Deluxe

pack

Рекомендуем

Пиратка

30

ВАЖНО

RePack

MK11

RePack

jed

RePack

fifa19

RePack

RDR2

RePack

NEED FOR SPEED™ PAYBACK

Кинопоиск HD

6 сезон

 Острые козырьки 6 сезон

Все сериалы

все сериалы на PB.wtf

RePack

FAR CRY 5
  
Magnet ссылка

Идеальный враг / A Perfect Enemy (Кике Маильо) [2020, Триллер, драма, приключения, BDRip-AVC] DVO [Pazl Voice] pb.wtf

Идеальный враг через торрент pb.wtf

Раздают: 4 [ 0.5 KB/s ] Качают: 1 [ 0 KB/s ]
Размер: 2.19 GB | Добавлен: 3 мес. 14 д. назад | Торрент скачан:225 раз
Смотреть онлайн Идеальный враг | Скачать    Ребята, помогите собрать деньги на оплату серверов!!!

20-03-2022 03:04 Идеальный враг Скачать торрент  

Идеальный враг
A Perfect Enemy

Год выпуска: 2020
Страна: Испания, Франция, Германия
Жанр: Триллер, драма, приключения
Продолжительность: 02:14:05
Перевод: Любительский (двухголосый) | Pazl Voice
Субтитры: Русские, английские (Forced, Full, SDH)

Режиссер: Кике Маильо

rating

В ролях: Томаш Кот, Доминик Пинон, Марта Ниэто, Афина Стрейтс, Stefanie Früchtenicht, Götz Vogel von Vogelstein

Описание: Успешный архитектор подвозит до аэропорта болтливую девушку. Встреча кажется случайной, а беседа занимательной, но она обернется жуткими последствиями.

Качество: BDRip-AVC
Формат: MKV

Видео: MPEG-4 AVC, 1120x468 (2,40:1), 2582 kbps, 24 fps
Аудио#1: 48 kHz, AC3, 5.1, 448 kbps | RUS
Аудио#2: 48 kHz, AC3, 5.1, 448 kbps | GER
скриншот  скриншот  скриншот  скриншот  скриншот  

Общее
Уникальный идентификатор : 103880617945310005347261904640396510249 (0x4E26ADE4EA8491C18927673CDB884429)
Полное имя : D:A.Perfect.Enemy.2020.DUAL.BDRip.x264.-HELLYWOOD.mkv
Формат : Matroska
Версия формата : Version 4
Размер файла : 2,19 Гбайт
Продолжительность : 1 ч. 29 м.
Общий поток : 3 481 Кбит/сек
Название фильма : A Perfect Enemy (2020)
Дата кодирования : UTC 2022-03-20 00:36:25
Программа кодирования : mkvmerge v62.0.0 ('Apollo') 64-bit
Библиотека кодирования : libebml v1.4.2 + libmatroska v1.6.4

Видео
Идентификатор : 1
Формат : AVC
Формат/Информация : Advanced Video Codec
Профиль формата : High@L4.1
Настройки формата : CABAC / 12 Ref Frames
Параметр CABAC формата : Да
Параметр RefFrames формата : 12 кадров
Идентификатор кодека : V_MPEG4/ISO/AVC
Продолжительность : 1 ч. 29 м.
Битрейт : 2 582 Кбит/сек
Ширина : 1 120 пикселей
Высота : 468 пикселей
Соотношение сторон : 2,40:1
Режим частоты кадров : Постоянный
Частота кадров : 24,000 кадра/сек
Цветовое пространство : YUV
Субдискретизация насыщенности : 4:2:0
Битовая глубина : 8 бит
Тип развёртки : Прогрессивная
Бит/(Пиксели*Кадры) : 0.205
Размер потока : 1,58 Гбайт (72%)
Заголовок : potroks
Библиотека кодирования : x264 core 163
Настройки программы : cabac=1 / ref=12 / deblock=1:-2:-2 / analyse=0x3:0x133 / me=umh / subme=11 / psy=1 / psy_rd=1.00:0.05 / mixed_ref=1 / me_range=32 / chroma_me=0 / trellis=2 / 8x8dct=1 / cqm=0 / deadzone=21,11 / fast_pskip=0 / chroma_qp_offset=-3 / threads=19 / lookahead_threads=3 / sliced_threads=0 / nr=0 / decimate=1 / interlaced=0 / bluray_compat=0 / constrained_intra=0 / bframes=10 / b_pyramid=2 / b_adapt=2 / b_bias=0 / direct=0 / weightb=1 / open_gop=0 / weightp=2 / keyint=240 / keyint_min=23 / scenecut=40 / intra_refresh=0 / rc_lookahead=100 / rc=2pass / mbtree=0 / bitrate=2582 / ratetol=1.0 / qcomp=0.70 / qpmin=0 / qpmax=69 / qpstep=5 / cplxblur=20.0 / qblur=0.5 / vbv_maxrate=50000 / vbv_bufsize=62500 / nal_hrd=none / filler=0 / ip_ratio=1.40 / pb_ratio=1.30 / aq=1:0.80
Язык : German
Default : Да
Forced : Нет
Цветовой диапазон : Limited
Основные цвета : BT.709
Характеристики трансфера : BT.709
Коэффициенты матрицы : BT.709

Аудио #1
Идентификатор : 2
Формат : AC-3
Формат/Информация : Audio Coding 3
Коммерческое название : Dolby Digital
Идентификатор кодека : A_AC3
Продолжительность : 1 ч. 29 м.
Вид битрейта : Постоянный
Битрейт : 448 Кбит/сек
Каналы : 6 каналов
Channel layout : L R C LFE Ls Rs
Частота : 48,0 КГц
Частота кадров : 31,250 кадров/сек (1536 SPF)
Метод сжатия : С потерями
Размер потока : 288 Мбайт (13%)
Заголовок : MVO | DD 5.1 @ 448 kbps - Pazl Voice
Язык : Russian
Service kind : Complete Main
Default : Да
Forced : Нет

Аудио #2
Идентификатор : 3
Формат : AC-3
Формат/Информация : Audio Coding 3
Коммерческое название : Dolby Digital
Идентификатор кодека : A_AC3
Продолжительность : 1 ч. 29 м.
Вид битрейта : Постоянный
Битрейт : 448 Кбит/сек
Каналы : 6 каналов
Channel layout : L R C LFE Ls Rs
Частота : 48,0 КГц
Частота кадров : 31,250 кадров/сек (1536 SPF)
Битовая глубина : 16 бит
Метод сжатия : С потерями
Размер потока : 288 Мбайт (13%)
Заголовок : Original | DD 5.1 @ 448 kbps
Язык : German
Service kind : Complete Main
Default : Нет
Forced : Нет

Текст #1
Идентификатор : 4
Формат : UTF-8
Идентификатор кодека : S_TEXT/UTF8
Идентификатор кодека/Информация : UTF-8 Plain Text
Заголовок : Full
Язык : Russian
Default : Нет
Forced : Нет

Текст #2
Идентификатор : 5
Формат : UTF-8
Идентификатор кодека : S_TEXT/UTF8
Идентификатор кодека/Информация : UTF-8 Plain Text
Заголовок : Forced
Язык : English
Default : Нет
Forced : Нет

Текст #3
Идентификатор : 6
Формат : UTF-8
Идентификатор кодека : S_TEXT/UTF8
Идентификатор кодека/Информация : UTF-8 Plain Text
Заголовок : Full
Язык : English
Default : Нет
Forced : Нет

Текст #4
Идентификатор : 7
Формат : UTF-8
Идентификатор кодека : S_TEXT/UTF8
Идентификатор кодека/Информация : UTF-8 Plain Text
Заголовок : SDH
Язык : English
Default : Нет
Forced : Нет

Меню
00:00:00.000 : de:Chapter 01
00:04:47.208 : de:Chapter 02
00:15:24.333 : de:Chapter 03
00:22:04.250 : de:Chapter 04
00:29:06.125 : de:Chapter 05
00:38:04.458 : de:Chapter 06
00:47:23.166 : de:Chapter 07
00:54:31.083 : de:Chapter 08
01:00:47.833 : de:Chapter 09
01:06:00.458 : de:Chapter 10
01:14:02.791 : de:Chapter 11
01:22:33.791 : de:Chapter 12

pb.wtf



Скачать Идеальный враг через торрент https://i6.imageban.ru/out/2022/03/19/899eed6febaae98ee4ac518ca72cc370.png Скачать, смотреть онлайн Идеальный враг бесплантно в хорошем качестве Описание: Успешный архитектор подвозит до аэропорта болтливую девушку. Встреча кажется случайной, а беседа занимательной, но она обернется ... 10 10 8
Торрент: Зарегистрирован [2022-03-20 03:04] · скачан: 225 раз
Статус: T временная
Размер: 2.19 GB
Как cкачать? Как скачать Идеальный враг через торрент | UTorrent



Последний раз редактировалось: bober100 (2022-03-27 16:04), всего редактировалось 1 раз

28-11-2019 20:33  

Отключить всю рекламу на сайте

20-03-2022 08:24 Идеальный враг Скачать торрент  

Хороший Фильм!!pb.wtf



20-03-2022 14:45 Идеальный враг Скачать торрент  

а когда норм перевод будет?)pb.wtf



    Дорогой пользователь! Огромная просьба, поблагодарите релизера, оцените раздачу и оставьте свои комментарий, если Вы скачали Идеальный враг через торрент бесплатно!
    Комментировать посты могут только пользователи прошедшие не сложную регистрацию
    Показать сообщения:    

    Идеальный враг через торрент
    Скачать бесплатно Идеальный враг
    Идеальный враг скачать торрент
    Идеальный враг смотреть онлайн
    Cкачать фильм Идеальный враг бесплатно
    Идеальный враг скачать торрент в хорошем качестве
    Идеальный враг смотреть онлайн бесплатно в хорошем качестве


    Вы не можете начинать темы
    Вы не можете отвечать на сообщения
    Вы не можете редактировать свои сообщения
    Вы не можете удалять свои сообщения
    Вы не можете голосовать в опросах
    Вы не можете прикреплять файлы к сообщениям
    Вы можете скачивать файлы