Всегда рабочее зеркало без VPN и Proxy просто перед .vidak.icu напиши любое слово или цифру, Пример http://rion.vidak.icu

MVO

Лицензия

1 сезон

1

1 сезон

iTunes

1 сезон

13

1 сезон

Deluxe

pack

Рекомендуем

Repack

30

ВАЖНО

RePack

MK11

RePack

jed

RePack

fifa19

RePack

RDR2

RePack

NEED FOR SPEED™ PAYBACK

Кинопоиск HD

6 сезон

 Острые козырьки 6 сезон

Все сериалы

все сериалы на PB.wtf

RePack

FAR CRY 5
  
Magnet ссылка

Хало / Halo / Сезон: 1 / Серия: 1-9 из 9 (Отто Батхёрст, Джонатан Либесман, Роэль Рейн, Джессика Лори) [2022, Фантастика, боевик, WEB-DLRip-AVC] MVO (LostFilm) pb.wtf

Хало через торрент pb.wtf

Раздают: 2 [ 0 KB/s ] Качают: 2 [ 0 KB/s ]
Размер: 7.37 GB | Добавлен: 1 мес. 17 д. назад | Торрент скачан:69 раз
Смотреть онлайн Хало | Скачать    Ребята, помогите собрать деньги на оплату серверов!!!

26-03-2022 01:31 Хало Скачать торрент  

Хало / Halo Год выпуска: 2022
Страна: США
Студия: 343 Industries, Amblin Television, Chapter Eleven, Microsoft Studios, One Big Picture, Showtime Networks, Paramount+
Жанр: Фантастика, боевик
Продолжительность: ~ 01:00:00
Перевод: Профессиональный (многоголосый) | LostFilm
Субтитры: Русские

Режиссер: Отто Батхёрст, Джонатан Либесман, Роэль Рейн, Джессика Лори

rating

В ролях:
Пабло Шрайбер, Наташа МакЭлхоун, Ерин Ха, Боким Вудбайн, Джен Тейлор, Шабана Азми, Олив Грэй, Чарли Мёрфи, Кейт Кеннеди, Бентли Калу, Наташа Кулзач, Дэнни Сапани, Райан МакПарланд, Берн Горман, Джулиан Блич, Сара Риджвей, Карл Джонсон, Хилтон МакРэй, Фиона О’Шонесси, Дункан Поу, Шерил Энн Уилсон, Франциско Лаббе

Описание:
На протяжении нескольких лет силы Космического Командования Объединенных Наций ведут войну с Империей Ковенанта, постепенно сдавая позиции. Однако земные ученые разработали проект «Спартанец-II» — программу создания суперсолдат посредством биологических и механических улучшений, на которую Командование возлагает большие надежды. Группа спартанцев во главе с Мастером Чифом (Пабло Шрайбер) прибывает на одну из планет, чтобы зачистить местную колонию от инопланетян Ковенанта, однако во время операции гибнет практически все население колонии, кроме девочки-подростка Кван А (Ерин Ха). Мастеру Чифу поручено доставить ее к Командованию, чтобы та могла поделиться сведениями об увиденном, однако во время полета приказ сменяется на убийство Кван. Впервые в жизни беспрекословно подчиняющийся солдат ослушается и скроется на корабле, на котором находится загадочная инопланетная технология, с помощью которой можно было бы переломить ход войны…

  • Качество: WEB-DLRip-AVC
  • Формат: :MKV
  • Видео кодек: AVC
  • Аудио кодек: AC3
    Видео: 1529 Кбит/сек, 1024*512 (2,000), в 24,000 кадра/сек, AVC
    Аудио Rus: 384 Кбит/сек, 48,0 КГц, 16 бит, 2 канала, AC-3 |LostFilm|
    Аудио Eng: 448 Кбит/сек, 48,0 КГц, 16 бит, 6 каналов, AC-3 |Original|
    Общее
    Уникальный идентификатор : 117495356388058436590620262576248175083 (0x5864C853315A7887CEE3031EE7B5B9EB)
    Полное имя : F:\Хало (Halo) Сезон 1\Хало - Halo.S01E01.(Контакт - Contact).WEB-DLRip-AVC.LostFilm.mkv
    Формат : Matroska
    Версия формата : Version 4
    Размер файла : 978 Мбайт
    Продолжительность : 56 м. 45 с.
    Общий поток : 2409 Кбит/сек
    Название фильма : Halo - S01E01 - Contact
    Программа кодирования : XviD4PSP 8.0.59
    Библиотека кодирования : Lavf58.20.100
    ErrorDetectionType : Per level 1
    ENCODING_INFO : MATROSKA,WEBM > MKV Пользовательский
    IMDB_RATING : tt2934286

    Видео
    Идентификатор : 1
    Формат : AVC
    Формат/Информация : Advanced Video Codec
    Профиль формата : [email protected]
    Настройки формата : CABAC / 4 Ref Frames
    Параметр CABAC формата : Да
    Параметр RefFrames формата : 4 кадра
    Идентификатор кодека : V_MPEG4/ISO/AVC
    Продолжительность : 56 м. 45 с.
    Битрейт : 1529 Кбит/сек
    Номинальный битрейт : 1800 Кбит/сек
    Ширина : 1024 пикселя
    Высота : 512 пикселей
    Соотношение сторон : 2,000
    Режим частоты кадров : Постоянный
    Частота кадров : 24,000 кадра/сек
    Цветовое пространство : YUV
    Субдискретизация насыщенности : 4:2:0
    Битовая глубина : 8 бит
    Тип развёртки : Прогрессивная
    Бит/(Пиксели*Кадры) : 0.122
    Размер потока : 621 Мбайт (63%)
    Библиотека кодирования : x264 core 157 r2969 d4099dd
    Настройки программы : cabac=1 / ref=3 / deblock=1:-1:-1 / analyse=0x3:0x133 / me=hex / subme=7 / psy=1 / psy_rd=1.00:0.20 / mixed_ref=1 / me_range=16 / chroma_me=1 / trellis=1 / 8x8dct=1 / cqm=0 / deadzone=21,11 / fast_pskip=1 / chroma_qp_offset=-3 / threads=9 / lookahead_threads=1 / sliced_threads=0 / nr=0 / decimate=1 / interlaced=0 / bluray_compat=0 / constrained_intra=0 / bframes=3 / b_pyramid=2 / b_adapt=2 / b_bias=0 / direct=3 / weightb=1 / open_gop=0 / weightp=2 / keyint=240 / keyint_min=24 / scenecut=40 / intra_refresh=0 / rc_lookahead=40 / rc=cbr / mbtree=1 / bitrate=1800 / ratetol=1.0 / qcomp=0.60 / qpmin=0 / qpmax=69 / qpstep=4 / vbv_maxrate=1800 / vbv_bufsize=1285 / nal_hrd=none / filler=0 / ip_ratio=1.40 / aq=1:1.00
    Язык : English
    Default : Да
    Forced : Нет
    Цветовой диапазон : Limited
    Основные цвета : BT.709
    Характеристики трансфера : BT.709
    Коэффициенты матрицы : BT.709
    ENCODING_INFO : H264 > X264 CBR 1800kbps HQ

    Аудио #1
    Идентификатор : 2
    Формат : AC-3
    Формат/Информация : Audio Coding 3
    Коммерческое название : Dolby Digital
    Идентификатор кодека : A_AC3
    Продолжительность : 56 м. 45 с.
    Вид битрейта : Постоянный
    Битрейт : 384 Кбит/сек
    Каналы : 2 канала
    ChannelLayout : L R
    Частота : 48,0 КГц
    Частота кадров : 31,250 кадров/сек (1536 SPF)
    Битовая глубина : 16 бит
    Метод сжатия : С потерями
    Размер потока : 156 Мбайт (16%)
    Заголовок : LF
    Язык : Russian
    ServiceKind/String : Complete Main
    Default : Да
    Forced : Нет
    ENCODING_INFO : AC3 > AC3 CBR 384kbps

    Аудио #2
    Идентификатор : 3
    Формат : AC-3
    Формат/Информация : Audio Coding 3
    Коммерческое название : Dolby Digital
    Идентификатор кодека : A_AC3
    Продолжительность : 56 м. 45 с.
    Вид битрейта : Постоянный
    Битрейт : 448 Кбит/сек
    Каналы : 6 каналов
    ChannelLayout : L R C LFE Ls Rs
    Частота : 48,0 КГц
    Частота кадров : 31,250 кадров/сек (1536 SPF)
    Битовая глубина : 16 бит
    Метод сжатия : С потерями
    Размер потока : 182 Мбайт (19%)
    Заголовок : Eng
    Язык : English
    ServiceKind/String : Complete Main
    Default : Нет
    Forced : Нет
    ENCODING_INFO : EAC3 > AC3 CBR 448kbps

    Текст
    Идентификатор : 4
    Формат : UTF-8
    Идентификатор кодека : S_TEXT/UTF8
    Идентификатор кодека/Информация : UTF-8 Plain Text
    Заголовок : Rus
    Язык : Russian
    Default : Да
    Forced : Нет
    ENCODING_INFO : SUBRIP > SUBRIP
    Когда раздача ведётся путём добавления новых серий, при каждом добавлении создаётся новый торрент. Чтобы начать докачку новой серии, пользователям необходимо сделать следующее:
    (1) остановить скачивание,
    (2) удалить старый торрент у себя из клиента (старые серии удалять не надо),
    (3) скачать новый торрент и запустить его у себя в клиенте вместо старого, при этом указать клиенту путь в старую папку куда и должно происходить скачивание новых серий.
    Ваш клиент при этом должен произвести хеширование (проверку) старой папки (если не производит сам - помогите ему сделать это), и будет докачивать только те серии, которых у вас ещё нет. Старые серии при этом не удаляются, а продолжают раздаваться!
    Eсли вы уже удалили старые серии, то предотвратить повторную закачку старых серий можно, отжав галочку в соответсвующих местах при запуске нового торрента. По возможности, желательно не удалять старые серии как можно дольше, чтобы релизер не столько продолжал раздавать старые серии, а смог сконцентрироваться на новых.
    «Halo» — это экранизация одноименной игровой франшизы в жанре боевой фантастики, разработанная сценаристами Steven_Kane/Стивеном Кэйном («The_Last_Ship/Последний корабль») и Kyle_Killen/Кайлом Килленом («Awake/Пробуждение») для сервиса Paramount+. Проект стартовал еще в 2013 году, когда инициатором и одним из продюсеров адаптации выступил Steven_Spielberg/Стивен Спилберг. Как и в игре, сериал повествует о войне землян с Ковенантом, теократическим союзом инопланетных цивилизаций. Таймлайн шоу несколько отличается от хронологии игр, однако сюжет также сконцентрирован на герое по имени Мастер Чиф. Главные роли в сериале исполнили Pablo_Schreiber/Пабло Шрайбер («American_Gods/Американские боги»), Natascha_McElhone/Наташа МакЭлхоун («Californication/Калифорникейшн»), Jen_Taylor/Джен Тейлор, Bokeem_Woodbine/Букем Вудбайн («Fargo/Фарго»).





    Скриншоты:
    скриншот   скриншот   скриншот   скриншот   скриншот   скриншот   скриншот   
    скриншот  
    pb.wtf



  • Скачать Хало через торрент https://i116.fastpic.org/big/2022/0325/57/b453a4dd4585c277d531d2c8c4a27657.jpg Скачать, смотреть онлайн Хало бесплантно в хорошем качестве Описание: На протяжении нескольких лет силы Космического Командования Объединенных Наций ведут войну с Империей Ковенанта, постепенно ... 9.9 10 10
    Торрент: Зарегистрирован [2022-05-20 23:25] · скачан: 69 раз
    Статус: √ проверено
    Размер: 7.37 GB
    Как cкачать? Как скачать Хало через торрент | UTorrent

    % Раздел Тема Автор DL S | L
    Сборники и Сиквелы (48-60 fps) [ 11.95 GB ] Хало / Halo / Сезон: 1 / Серии: 1-9 из 9 [2022 WEB-DLRip - HEVC 1080p 10 bit 60 FPS MVO] dd2d3 Скачать
    4 | 0
    Зарубежные сериалы [ 6.7 GB ] Хало / Halo / Сезон: 1 / Серии: 1-9 из 9 [2022 WEB-DLRip] MVO [AlexFilm] bober100 Скачать
    1 | 0
    Зарубежные сериалы [ 29.76 GB ] Хало / Halo / Сезон: 1 / Серии: 1-9 из 9 [2022 WEB-DL 1080p] MVO [AlexFilm] bober100 Скачать
    3 | 1
    Зарубежные сериалы [ 27.56 GB ] Хало / Halo / Сезон: 1 / Серии: 1-9 из 9 [2022 WEB-DL 1080p] MVO [NewComers] bober100 Скачать
    2 | 0
    Зарубежные сериалы [ 13.4 GB ] Хало / Halo / Сезон: 1 / Серии: 1-9 из 9 [2022 WEB-DL 720p] MVO [LostFilm] bober100 Скачать
    5 | 0
    T Зарубежные сериалы [ 5.09 GB ] Хало / Halo / Сезон: 1 / Серии: 1-9 из 9 [2022 WEBRip] MVO [ColdFilm] bober100 Скачать
    2 | 1
    Зарубежные сериалы [ 28.95 GB ] Хало / Halo / Сезон: 1 / Серия: 1-9 из 9 [2022 WEB-DL 1080p] 2 x MVO GEKADOL Скачать
    2 | 1

    28-11-2019 20:33  

    Отключить всю рекламу на сайте

      Дорогой пользователь! Огромная просьба, поблагодарите релизера, оцените раздачу и оставьте свои комментарий, если Вы скачали Хало через торрент бесплатно!
      Комментировать посты могут только пользователи прошедшие не сложную регистрацию
      Показать сообщения:    

      Хало через торрент
      Скачать бесплатно Хало
      Хало скачать торрент
      Хало смотреть онлайн
      Cкачать фильм Хало бесплатно
      Хало скачать торрент в хорошем качестве
      Хало смотреть онлайн бесплатно в хорошем качестве


      Вы не можете начинать темы
      Вы не можете отвечать на сообщения
      Вы не можете редактировать свои сообщения
      Вы не можете удалять свои сообщения
      Вы не можете голосовать в опросах
      Вы не можете прикреплять файлы к сообщениям
      Вы можете скачивать файлы