Доктор Стрэндж

Лицензия

Добыча

Дубляж

Дом дракона

1 сезон

Тор

Дубляж

В эфире

Дубляж

Там, где раки поют

MVO

Властелин колец

1 сезон

Deluxe

pack

Рекомендуем

30

Пиратка

ВАЖНО

ВАЖНО

Ghostwire

Пиратка

jed

RePack

nioh2

RePack

RDR2

RePack

NEED FOR SPEED™ PAYBACK

RePack

скачать торрент

Кинопоиск HD

Острые козырьки 6 сезон

6 сезон

FAR CRY 6

RePack

скачать торрент

Лицензия

скачать торрент

MVO

1

1 сезон

скачать торрент

1 сезон

скачать торрент

Лицензия

  

Шан-Чи и легенда десяти колец в 3Д / Shang-Chi and the Legend of the Ten Rings 3D (Дестин Дэниел Креттон) [2021, Фантастика, фэнтези, боевик, приключения, BDRip 1080p, (Half OverUnder)] Дубляж [Невафильм]

Шан-Чи и легенда десяти колец в 3Д через торрент pb.wtf

Размер: 11.71 GB | Добавлен: 11 мес. назад | Торрент скачан:166 раз
Смотреть онлайн | Скачать   

15-12-2021 16:30 Шан-Чи и легенда десяти колец в 3Д Скачать торрент  

Шан-Чи и легенда десяти колец в 3Д
Shang-Chi and the Legend of the Ten Rings 3D

Год выпуска: 2021
Страна: США, Австралия
Выпущено: Walt Disney Pictures, Marvel Studios, Fox Studios Australia
Жанр: Фантастика, фэнтези, боевик, приключения
Продолжительность: 02:12:20
Перевод: Дублированный | Невафильм
Субтитры:
Вшитые (softsub):
#1 - Русские Форсированные (на китайскую речь и на надписи) (включены по умолчанию)
#2 - Русские Полные
#3 - Украинские Форсированные (на китайскую речь и на надписи)
#4 - English Forced (for Chinese speaches)
#5 - English Full
#6 - English SDH

Внешние (UTF-8):
#1 - Русские Форсированные (на китайскую речь и на надписи) (включены по умолчанию)
#2 - Русские Полные
#3 - Украинские Форсированные (на китайскую речь и на надписи)
#4 - English Forced (for Chinese speaches)

Режиссер: Дестин Дэниел Креттон

rating

В ролях: Симу Лю, Тони Люн Чу Вай, Аквафина, Мишель Йео, Флориан Мунтяну, Ронни Чиэн, Чэнь Фала, Даллас Джеймс Лью, Чжан Мэнъэр, Тим Рот, Бенедикт Вонг, Бен Кингсли

Описание: Благодаря изнуряющим тренировкам и жесткому воспитанию отца Шан-Чи достиг небывалых высот в боевых искусствах, но выбрал не ту жизнь, которую уготовил для него родитель. Работая простым парковщиком в Сан-Франциско, Шан-Чи сталкивается с призраками прошлого и вместе с подругой Кэти оказывается втянут в водоворот фантастических событий, связанных с таинственной организацией «Десять колец»

Качество: BDRip 1080p
Формат: MKV

Видео: AVC / 1920х1080p / 23,976 fps / 11.0 Mbps
Аудио #01: Русский / AC3 / 48 KHz / 5.1 ch / 448 Kbps (Дубляж - Невафильм) (Кинопоиск HD)
Аудио #02: Украинский / AC3 / 48 KHz / 2 ch / 192 Kbps (Дубляж - LeDoyen) (Line) (моно) (спасибо Hurtom!)
Аудио #03: Украинский / AC3 / 48 KHz / 5.1 ch / 384 Kbps (MVO - DniproFilm) (HDRezka) (спасибо Hurtom!)
Аудио #04: English / AC3 / 48 KHz / 5.1 ch / 640 Kbps (Original - BD 3D Jap)
Формат 3D: Half OverUnder / Вертикальная анаморфная стереопара
Порядок ракурсов: левый ракурс первый
скриншот  скриншот  скриншот  скриншот  скриншот  

General
Unique ID : 220670212641824561425755837766157621591 (0xA603897B32F74FE796151697794A5957)
Complete name : D:Shang-Chi(2021)3D-hOU(Ash61)Shang-Chi(2021)3D-hOU(Ash61).mkv
Format : Matroska
Format version : Version 2
File size : 11.7 GiB
Duration : 2 h 12 min
Overall bit rate : 12.7 Mb/s
Movie name : Шан-Чи и легенда десяти колец / Shang-Chi and the Legend of the Ten Rings (2021) in 3D
Encoded date : UTC 2021-12-15 11:17:23
Writing application : mkvmerge v5.8.0 ('No Sleep / Pillow') built on Sep 2 2012 15:37:04
Writing library : libebml v1.2.3 + libmatroska v1.3.0

Video
ID : 1
Format : AVC
Format/Info : Advanced Video Codec
Format profile : [email protected]
Format settings : CABAC / 4 Ref Frames
Format settings, CABAC : Yes
Format settings, Reference : 4 frames
Codec ID : V_MPEG4/ISO/AVC
Duration : 2 h 12 min
Bit rate : 11.0 Mb/s
Width : 1 920 pixels
Height : 1 080 pixels
Display aspect ratio : 16:9
Frame rate mode : Constant
Frame rate : 23.976 (24000/1001) FPS
Color space : YUV
Chroma subsampling : 4:2:0
Bit depth : 8 bits
Scan type : Progressive
Bits/(Pixel*Frame) : 0.221
Stream size : 9.94 GiB (85%)
Title : BDRip by Ash61
Writing library : x264 core 146 r2538 121396c
Encoding settings : cabac=1 / ref=4 / deblock=1:-3:-3 / analyse=0x3:0x113 / me=umh / subme=10 / psy=1 / psy_rd=1.00:0.00 / mixed_ref=1 / me_range=32 / chroma_me=1 / trellis=2 / 8x8dct=1 / cqm=0 / deadzone=21,11 / fast_pskip=0 / chroma_qp_offset=-2 / threads=12 / lookahead_threads=3 / sliced_threads=0 / nr=0 / decimate=0 / interlaced=0 / bluray_compat=0 / constrained_intra=0 / bframes=12 / b_pyramid=2 / b_adapt=2 / b_bias=0 / direct=3 / weightb=1 / open_gop=0 / weightp=2 / keyint=250 / keyint_min=23 / scenecut=40 / intra_refresh=0 / rc_lookahead=60 / rc=2pass / mbtree=0 / bitrate=11000 / ratetol=1.0 / qcomp=0.70 / qpmin=0 / qpmax=69 / qpstep=4 / cplxblur=20.0 / qblur=0.5 / vbv_maxrate=40000 / vbv_bufsize=30000 / nal_hrd=none / filler=0 / frame-packing=4 / ip_ratio=1.40 / pb_ratio=1.30 / aq=1:0.70
Language : English
Default : Yes
Forced : No

Audio #1
ID : 2
Format : AC-3
Format/Info : Audio Coding 3
Commercial name : Dolby Digital
Codec ID : A_AC3
Duration : 2 h 12 min
Bit rate mode : Constant
Bit rate : 448 kb/s
Channel(s) : 6 channels
Channel layout : L R C LFE Ls Rs
Sampling rate : 48.0 kHz
Frame rate : 31.250 FPS (1536 SPF)
Compression mode : Lossy
Stream size : 424 MiB (4%)
Title : Дубляж - Невафильм (Кинопоиск HD)
Language : Russian
Service kind : Complete Main
Default : Yes
Forced : No

Audio #2
ID : 3
Format : AC-3
Format/Info : Audio Coding 3
Commercial name : Dolby Digital
Codec ID : A_AC3
Duration : 2 h 12 min
Bit rate mode : Constant
Bit rate : 192 kb/s
Channel(s) : 2 channels
Channel layout : L R
Sampling rate : 48.0 kHz
Frame rate : 31.250 FPS (1536 SPF)
Compression mode : Lossy
Stream size : 182 MiB (2%)
Title : Дубляж - LeDoyen (Line)(моно)
Language : Ukrainian
Service kind : Complete Main
Default : No
Forced : No

Audio #3
ID : 4
Format : AC-3
Format/Info : Audio Coding 3
Commercial name : Dolby Digital
Codec ID : A_AC3
Duration : 2 h 12 min
Bit rate mode : Constant
Bit rate : 384 kb/s
Channel(s) : 6 channels
Channel layout : L R C LFE Ls Rs
Sampling rate : 48.0 kHz
Frame rate : 31.250 FPS (1536 SPF)
Compression mode : Lossy
Stream size : 363 MiB (3%)
Title : MVO - HDRezka (DniproFilm)
Language : Ukrainian
Service kind : Complete Main
Default : No
Forced : No

Audio #4
ID : 5
Format : AC-3
Format/Info : Audio Coding 3
Commercial name : Dolby Digital
Codec ID : A_AC3
Duration : 2 h 12 min
Bit rate mode : Constant
Bit rate : 640 kb/s
Channel(s) : 6 channels
Channel layout : L R C LFE Ls Rs
Sampling rate : 48.0 kHz
Frame rate : 31.250 FPS (1536 SPF)
Compression mode : Lossy
Stream size : 606 MiB (5%)
Title : Original (BD 3D Jap)
Language : English
Service kind : Complete Main
Default : No
Forced : No

Text #1
ID : 6
Format : UTF-8
Codec ID : S_TEXT/UTF8
Codec ID/Info : UTF-8 Plain Text
Title : Форсированные (на китайскую речь и на надписи)
Language : Russian
Default : Yes
Forced : No

Text #2
ID : 7
Format : UTF-8
Codec ID : S_TEXT/UTF8
Codec ID/Info : UTF-8 Plain Text
Title : Полные
Language : Russian
Default : No
Forced : No

Text #3
ID : 8
Format : UTF-8
Codec ID : S_TEXT/UTF8
Codec ID/Info : UTF-8 Plain Text
Title : Форсированные (на китайскую речь и на надписи)
Language : Ukrainian
Default : No
Forced : No

Text #4
ID : 9
Format : UTF-8
Codec ID : S_TEXT/UTF8
Codec ID/Info : UTF-8 Plain Text
Title : Forced
Language : English
Default : No
Forced : No

Text #5
ID : 10
Format : UTF-8
Codec ID : S_TEXT/UTF8
Codec ID/Info : UTF-8 Plain Text
Title : Full
Language : English
Default : No
Forced : No

Text #6
ID : 11
Format : UTF-8
Codec ID : S_TEXT/UTF8
Codec ID/Info : UTF-8 Plain Text
Title : SDH
Language : English
Default : No
Forced : No

Menu
00:00:00.000 : :1
00:03:52.858 : :2
00:09:28.985 : :3
00:16:17.185 : :4
00:22:47.491 : :5
00:31:59.668 : :6
00:42:49.484 : :7
00:52:21.055 : :8
00:56:51.325 : :9
01:00:35.006 : :10
01:08:46.122 : :11
01:15:55.050 : :12
01:19:51.286 : :13
01:29:49.676 : :14
01:36:45.800 : :15
01:47:00.623 : :16
01:55:25.293 : :17
02:00:07.242 : :18
02:01:46.132 : :19
02:04:08.858 : :20
02:10:39.248 : :21




Скачать Шан-Чи и легенда десяти колец в 3Д через торрент https://c.radikal.ru/c19/2112/b7/0da413afcdaf.png Скачать, смотреть онлайн Шан-Чи и легенда десяти колец в 3Д бесплантно в хорошем качестве Описание: Благодаря изнуряющим тренировкам и жесткому воспитанию отца Шан-Чи достиг небывалых высот в боевых искусствах, но выбрал не ту ... 10 10 6
Торрент: Зарегистрирован [2021-12-15 16:30] · скачан: 166 раз
Статус: √ проверено
Размер: 11.71 GB
Как cкачать? Как скачать Шан-Чи и легенда десяти колец в 3Д через торрент | UTorrent

28-11-2019 20:33  


Отключить вcю реклaмy на сайте, в т.ч. и в плеере онлайн просмотра!

08-01-2022 13:56 Шан-Чи и легенда десяти колец в 3Д Скачать торрент  

этот фильм можно посмотреть как то на андроид ТВ в 3d ?



27-03-2022 09:06 Шан-Чи и легенда десяти колец в 3Д Скачать торрент  

lordsharks писал(а):

этот фильм можно посмотреть как то на андроид ТВ в 3d ?

Для тв и проэкторов с функцией 3D(не анаглиф)



    Дорогой пользователь! Огромная просьба, поблагодарите релизера, оцените раздачу и оставьте свои комментарий, если Вы скачали Шан-Чи и легенда десяти колец в 3Д через торрент бесплатно!!
    Комментировать посты могут только пользователи прошедшие не сложную регистрацию
    Показать сообщения:    


    Шан-Чи и легенда десяти колец в 3Д через торрент
    Скачать бесплатно Шан-Чи и легенда десяти колец в 3Д
    Шан-Чи и легенда десяти колец в 3Д скачать торрент
    Шан-Чи и легенда десяти колец в 3Д смотреть онлайн
    Cкачать фильм Шан-Чи и легенда десяти колец в 3Д бесплатно
    Шан-Чи и легенда десяти колец в 3Д скачать торрент в хорошем качестве
    Шан-Чи и легенда десяти колец в 3Д смотреть онлайн бесплатно в хорошем качестве
    Вы не можете начинать темы
    Вы не можете отвечать на сообщения
    Вы не можете редактировать свои сообщения
    Вы не можете удалять свои сообщения
    Вы не можете голосовать в опросах
    Вы не можете прикреплять файлы к сообщениям
    Вы можете скачивать файлы
    Шан-Чи и легенда десяти колец в 3Д / Shang-Chi and the Legend of the Ten Rings 3D [2021, Фантастика, фэнтези, боевик, приключения, BDRip 1080p, ] Дубляж [Невафильм] смотреть онлайн, скачать торрент picoco.icu