Всегда рабочее зеркало без VPN и Proxy просто перед .vidak.icu напиши любое слово или цифру, Пример http://q63o.vidak.icu

MVO

MVO

1 сезон

1

1 сезон

iTunes

1 сезон

13

1 сезон

Deluxe

pack

Рекомендуем

Repack

30

ВАЖНО

RePack

MK11

RePack

jed

RePack

fifa19

RePack

RDR2

RePack

NEED FOR SPEED™ PAYBACK

Кинопоиск HD

6 сезон

 Острые козырьки 6 сезон

Все сериалы

все сериалы на PB.wtf

RePack

FAR CRY 5
  
Magnet ссылка

Смерть на Ниле / Death on the Nile (Кеннет Брана) [2022, Детектив, криминал, драма, BDRip 720p] DUB (rus, ukr) [Невафильм] +MVO [Jaskier] pb.wtf

Смерть на Ниле через торрент pb.wtf

Раздают: 3 [ 0 KB/s ]
Размер: 6.08 GB | Добавлен: 1 мес. 8 д. назад | Торрент скачан:122 раза
Смотреть онлайн Смерть на Ниле | Скачать    Ребята, помогите собрать деньги на оплату серверов!!!

27-03-2022 12:23 Смерть на Ниле Скачать торрент  

Смерть на Ниле
Death on the Nile

Год выпуска: 2022
Страна: США, Великобритания
Выпущено: 20th Century Studios? Kinberg Genre? Scott Free Productions
Жанр: Детектив, криминал, драма
Продолжительность: 02:06:57
Перевод:
Дублированный | Невафильм
Профессиональный многоголосый | Jaskier
Субтитры: Русские (Forced, 2хFull), английские (Forced, Full), украинские (Full, SDH)

Режиссер: Кеннет Брана

rating

В ролях: Кеннет Брана, Галь Гадот, Арми Хаммер, Эмма Маккей, Летишиа Райт, Софи Оконедо, Том Бейтман, Аннетт Бенинг, Роуз Лесли, Майкл Раус

Описание: Действие фильма развивается на борту парохода «Карнак», идущего по Нилу, где Пуаро вынужден расследовать смерть богатой наследницы. Постепенно детектив понимает, что убийство — это не единственное правонарушение, которое совершается или прямо на борту, или ранее совершено людьми, плывущими на «Карнаке». Среди пассажиров обнаруживаются два вора, мошенник, оголтелый коммунист и даже международный террорист. По мотивом одноименного романа Агаты Кристи.

Качество: BDRip 720p
Формат: MKV

Видео: MPEG-4 AVC, 1280x536, 4736 Кbit/s, 23.976 fps
Аудио #01: 48 kHz, AC3, 5.1, 384 Kbps | Дублированный | Невафильм | RUS |
Аудио #02: 48 kHz, AC3, 5.1, 640 Kbps | Профессиональный многоголосый | Jaskier | RUS |
Аудио #03: 48 kHz, AC3, 5.1, 448 Kbps | Дублированный | UKR |
Аудио #04: 48 kHz, AC3, 5.1, 640 Kbps | Оригинал | ENG |

Complete name: Smert.na.Nile.2022.BDRip.720p.ELEKTRI4KA.UNIONGANG.mkv
Format: Matroska
Format version: Version 4
File size: 6.08 GiB
Duration: 2 h 7 min
Overall bit rate: 6 841 kb/s
Movie name: Smert.na.Nile.2022.BDRip.720p.ELEKTRI4KA.UNIONGANG.
Encoded date: UTC 2022-06-29 23:00:34
Writing application: mkvmerge v8.3.0 ('Over the Horizon') 32bit
Writing library: libebml v1.3.1 + libmatroska v1.4.2

Video
ID: 1
Format: AVC
Format/Info: Advanced Video Codec
Format profile: [email protected]
Format settings: CABAC / 12 Ref Frames
Format settings, CABAC: Yes
Format settings, Reference frames: 12 frames
Codec ID: V_MPEG4/ISO/AVC
Duration: 2 h 6 min
Bit rate: 4 736 kb/s
Width: 1 280 pixels
Height: 536 pixels
Display aspect ratio: 2.40:1
Frame rate mode: Constant
Frame rate: 23.976 (24000/1001) FPS
Color space: YUV
Chroma subsampling: 4:2:0
Bit depth: 8 bits
Scan type: Progressive
Bits/(Pixel*Frame): 0.288
Stream size: 4.20 GiB (69%)
Writing library: x264 core 157 r2938 2b00a84 [email protected] Mod
Encoding settings: cabac=1 / ref=12 / deblock=1:-3:-3 / analyse=0x3:0x133 / me=umh / subme=10 / psy=1 / psy_rd=1.05:0.00 / mixed_ref=1 / me_range=32 / chroma_me=1 / trellis=2 / 8x8dct=1 / cqm=0 / deadzone=21, 11 / fast_pskip=0 / chroma_qp_offset=-2 / threads=12 / lookahead_threads=2 / sliced_threads=0 / nr=0 / decimate=0 / interlaced=0 / bluray_compat=0 / constrained_intra=0 / bframes=8 / b_pyramid=2 / b_adapt=2 / b_bias=0 / direct=3 / weightb=1 / open_gop=0 / weightp=2 / keyint=250 / keyint_min=24 / scenecut=40 / intra_refresh=0 / rc_lookahead=250 / rc=crf / mbtree=0 / crf=16.8 / qcomp=0.60 / qpmin=0 / qpmax=69 / qpstep=4 / vbv_maxrate=62500 / vbv_bufsize=78125 / crf_max=0.0 / nal_hrd=none / filler=0 / ip_ratio=1.30 / pb_ratio=1.20 / aq=3:0.80
Language: English
Default: Yes
Forced: No
Color range: Limited
Color primaries: BT.709
Matrix coefficients: BT.709

Audio #1
ID: 2
Format: AC-3
Format/Info: Audio Coding 3
Commercial name: Dolby Digital
Codec ID: A_AC3
Duration: 2 h 7 min
Bit rate mode: Constant
Bit rate: 384 kb/s
Channel(s): 6 channels
Channel layout: L R C LFE Ls Rs
Sampling rate: 48.0 kHz
Frame rate: 31.250 FPS (1536 SPF)
Compression mode: Lossy
Stream size: 349 MiB (6%)
Title: DUB AC3 5.1 384
Language: Russian
Service kind: Complete Main
Default: Yes
Forced: Yes

Audio #2
ID: 3
Format: AC-3
Format/Info: Audio Coding 3
Commercial name: Dolby Digital
Codec ID: A_AC3
Duration: 2 h 6 min
Bit rate mode: Constant
Bit rate: 640 kb/s
Channel(s): 6 channels
Channel layout: L R C LFE Ls Rs
Sampling rate: 48.0 kHz
Frame rate: 31.250 FPS (1536 SPF)
Compression mode: Lossy
Stream size: 581 MiB (9%)
Title: MVO (Jaskier)
Language: Russian
Service kind: Complete Main
Default: No
Forced: No

Audio #3
ID: 4
Format: AC-3
Format/Info: Audio Coding 3
Commercial name: Dolby Digital
Codec ID: A_AC3
Duration: 2 h 7 min
Bit rate mode: Constant
Bit rate: 448 kb/s
Channel(s): 6 channels
Channel layout: L R C LFE Ls Rs
Sampling rate: 48.0 kHz
Frame rate: 31.250 FPS (1536 SPF)
Compression mode: Lossy
Stream size: 407 MiB (7%)
Title: Dub, AC3 5.1 448 kbps
Language: Ukrainian
Service kind: Complete Main
Default: No
Forced: No

Audio #4
ID: 5
Format: AC-3
Format/Info: Audio Coding 3
Commercial name: Dolby Digital
Codec ID: A_AC3
Duration: 2 h 6 min
Bit rate mode: Constant
Bit rate: 640 kb/s
Channel(s): 6 channels
Channel layout: L R C LFE Ls Rs
Sampling rate: 48.0 kHz
Frame rate: 31.250 FPS (1536 SPF)
Compression mode: Lossy
Stream size: 581 MiB (9%)
Title: Original
Language: English
Service kind: Complete Main
Default: No
Forced: No

Text #1
ID: 6
Format: UTF-8
Codec ID: S_TEXT/UTF8
Codec ID/Info: UTF-8 Plain Text
Duration: 1 h 58 min
Bit rate: 7 b/s
Count of elements: 132
Stream size: 6.25 KiB (0%)
Title: Forced
Language: Russian
Default: Yes
Forced: No

Text #2
ID: 7
Format: UTF-8
Codec ID: S_TEXT/UTF8
Codec ID/Info: UTF-8 Plain Text
Duration: 1 h 57 min
Bit rate: 101 b/s
Count of elements: 1719
Stream size: 88.0 KiB (0%)
Title: Full v1
Language: Russian
Default: No
Forced: No

Text #3
ID: 8
Format: UTF-8
Codec ID: S_TEXT/UTF8
Codec ID/Info: UTF-8 Plain Text
Duration: 1 h 58 min
Bit rate: 125 b/s
Count of elements: 1841
Stream size: 109 KiB (0%)
Title: Full v2
Language: Russian
Default: No
Forced: No

Text #4
ID: 9
Format: UTF-8
Codec ID: S_TEXT/UTF8
Codec ID/Info: UTF-8 Plain Text
Duration: 1 h 56 min
Bit rate: 2 b/s
Count of elements: 58
Stream size: 2.46 KiB (0%)
Title: Forced
Language: Ukrainian
Default: No
Forced: No

Text #5
ID: 10
Format: UTF-8
Codec ID: S_TEXT/UTF8
Codec ID/Info: UTF-8 Plain Text
Duration: 1 h 58 min
Bit rate: 124 b/s
Count of elements: 1841
Stream size: 108 KiB (0%)
Title: Full
Language: Ukrainian
Default: No
Forced: No

Text #6
ID: 11
Format: UTF-8
Codec ID: S_TEXT/UTF8
Codec ID/Info: UTF-8 Plain Text
Duration: 19 min 48 s
Bit rate: 7 b/s
Count of elements: 40
Stream size: 1.02 KiB (0%)
Title: Forced
Language: English
Default: No
Forced: No

Text #7
ID: 12
Format: UTF-8
Codec ID: S_TEXT/UTF8
Codec ID/Info: UTF-8 Plain Text
Duration: 1 h 58 min
Bit rate: 67 b/s
Count of elements: 1795
Stream size: 58.6 KiB (0%)
Language: English
Default: No
Forced: No

Text #8
ID: 13
Format: UTF-8
Codec ID: S_TEXT/UTF8
Codec ID/Info: UTF-8 Plain Text
Duration: 1 h 58 min
Bit rate: 77 b/s
Count of elements: 2142
Stream size: 67.2 KiB (0%)
Title: SDH
Language: English
Default: No
Forced: No

Menu
00:00:00.000: en:(01)00:00:00:000
00:07:16.227: en:(02)00:07:16:227
00:16:02.002: en:(03)00:16:02:002
00:18:49.878: en:(04)00:18:49:878
00:19:45.559: en:(05)00:19:45:559
00:26:59.242: en:(06)00:26:59:242
00:29:32.145: en:(07)00:29:32:145
00:32:49.217: en:(08)00:32:49:217
00:37:22.990: en:(09)00:37:22:990
00:39:09.513: en:(10)00:39:09:513
00:44:45.599: en:(11)00:44:45:599
00:48:15.434: en:(12)00:48:15:434
00:53:57.150: en:(13)00:53:57:150
00:58:43.937: en:(14)00:58:43:937
01:03:51.911: en:(15)01:03:51:911
01:09:06.809: en:(16)01:09:06:809
01:12:42.024: en:(17)01:12:42:024
01:15:27.523: en:(18)01:15:27:523
01:17:52.084: en:(19)01:17:52:084
01:23:36.886: en:(20)01:23:36:886
01:27:42.590: en:(21)01:27:42:590
01:31:19.724: en:(22)01:31:19:724
01:35:35.438: en:(23)01:35:35:438
01:43:00.924: en:(24)01:43:00:924
01:54:49.132: en:(25)01:54:49:132
01:59:51.767: en:(26)01:59:51:767
02:06:57.276: en:(27)02:06:57:276

pb.wtf



Скачать Смерть на Ниле через торрент https://i7.imageban.ru/out/2022/03/29/1b4855e80c6b1a0043bdb14f2a5eac8e.png Скачать, смотреть онлайн Смерть на Ниле бесплантно в хорошем качестве Описание: Действие фильма развивается на борту парохода «Карнак», идущего по Нилу, где Пуаро вынужден расследовать смерть богатой ... 9.6 10 23
Info! Золотая раздача, скачанное не засчитывается.
Торрент: Зарегистрирован [2022-06-30 00:18] · скачан: 122 раз
Статус: √ проверено
Размер: 6.08 GB
Как cкачать? Как скачать Смерть на Ниле через торрент | UTorrent

% Раздел Тема Автор DL S | L
Фильмы [HD 720p, 1080p] (Хороший звук DUB, MVO) [ 15.81 GB ] Смерть на Ниле / Death on the Nile [2022 BDRip 1080p] DUB [Невафильм] +MVO [Jaskier] bober100 Скачать
9 | 0
Фильмы 2022 [DVDrip, WEB-DLRip, HDrip] (DUB, MVO) [ 2.18 GB ] Смерть на Ниле / Death on the Nile [2022 BDRip] MVO [Jaskier] bober100 Скачать
4 | 0
Фильмы 2022 [DVDrip, WEB-DLRip, HDrip] (DUB, MVO) [ 1.46 GB ] Смерть на Ниле / Death on the Nile [2022 BDRip] MVO [Jaskier] bober100 Скачать
2 | 0
Ultra HD (UHD: 2K, 4K, 8K) — видео сверхвысокой чёткости [ 49.34 GB ] Смерть на Ниле / Death on the Nile [2022 UHD BDRemux 2160p] DUB [Невафильм] +MVO [Jaskier] bober100 Скачать
1 | 0
Фильмы (Blu-ray, BD-Remux, HDDVD) [ 32.22 GB ] Смерть на Ниле / Death on the Nile [2022 BD Remux 1080p] DUB [Невафильм] +MVO [Jaskier] bober100 Скачать
1 | 0
Фильмы 2022 [DVDrip, WEB-DLRip, HDrip] (DUB, MVO) [ 3.22 GB ] Смерть на Ниле / Death on the Nile [2022 BDRip-AVC] DUB MVO [Невафильм Jaskier] от ExKinoRay Lithuania Скачать
3 | 0
Фильмы 2022 [DVDrip, WEB-DLRip, HDrip] (DUB, MVO) [ 2.65 GB ] Смерть на Ниле / Death on the Nile [2022 HDRip-AVC] MVO [Jaskier] bober100 Скачать
11 | 0

28-11-2019 20:33  

Отключить вcю реклaмy на сайте

    Дорогой пользователь! Огромная просьба, поблагодарите релизера, оцените раздачу и оставьте свои комментарий, если Вы скачали Смерть на Ниле через торрент бесплатно!
    Комментировать посты могут только пользователи прошедшие не сложную регистрацию
    Показать сообщения:    

    Смерть на Ниле через торрент
    Скачать бесплатно Смерть на Ниле
    Смерть на Ниле скачать торрент
    Смерть на Ниле смотреть онлайн
    Cкачать фильм Смерть на Ниле бесплатно
    Смерть на Ниле скачать торрент в хорошем качестве
    Смерть на Ниле смотреть онлайн бесплатно в хорошем качестве


    Вы не можете начинать темы
    Вы не можете отвечать на сообщения
    Вы не можете редактировать свои сообщения
    Вы не можете удалять свои сообщения
    Вы не можете голосовать в опросах
    Вы не можете прикреплять файлы к сообщениям
    Вы можете скачивать файлы