Всегда рабочее зеркало без VPN и Proxy просто перед .vidak.icu напиши любое слово или цифру, Пример http://85md.vidak.icu

MVO

Лицензия

1 сезон

1

1 сезон

iTunes

1 сезон

13

1 сезон

Deluxe

pack

Рекомендуем

Пиратка

30

ВАЖНО

RePack

MK11

RePack

jed

RePack

fifa19

RePack

RDR2

RePack

NEED FOR SPEED™ PAYBACK

Кинопоиск HD

6 сезон

 Острые козырьки 6 сезон

Все сериалы

все сериалы на PB.wtf

RePack

FAR CRY 5
  
Magnet ссылка

Хало / Halo / Сезон: 1 / Серии: 1-9 из 9 (Отто Батхёрст, Джонатан Либесман, Роэль Рейн) [2022, Фантастика, боевик, WEB-DL 720p] MVO [LostFilm] pb.wtf

Хало через торрент pb.wtf

Раздают: 10 [ 13 KB/s ]
Размер: 13.4 GB | Добавлен: 1 мес. 13 д. назад | Торрент скачан:217 раз
Смотреть онлайн Хало | Скачать    Ребята, помогите собрать деньги на оплату серверов!!!

26-03-2022 02:20 Хало Скачать торрент  

Halo | Halo
«***»
Год выпуска: 2022
Страна: США
Студия: 343 Industries, Amblin Television, Chapter Eleven, Microsoft, Microsoft Studios, One Big Picture, Showtime
Жанр: Фантастика, боевик
Продолжительность: ~ 00:59:00
Перевод: Профессиональный (многоголосый) | LostFilm
Субтитры: Русские, английские

Режиссер: Отто Батхёрст, Джонатан Либесман, Роэль Рейн

rating

В ролях: Пабло Шрайбер, Наташа МакЭлхоун, Ерин Ха, Боким Вудбайн, Джен Тейлор, Шабана Азми, Олив Грэй, Чарли Мёрфи, Кейт Кеннеди, Бентли Калу

Описание: В XXVI веке между земными силами Космического командования Объединённых наций и религиозным союзом нескольких инопланетных рас идёт ожесточённая война. Люди изо всех сил борются за выживание, но всё же сдают позиции на всех фронтах. Последней надеждой становится проект SPARTAN-II — программа создания усиленных людей, которые должны стать самым эффективным оружием в борьбе с пришельцами.
Противники находят и уничтожают планету вместе со спартанцами. Спастись удаётся всего одному кораблю — «Столпу осени», на котором находится последний выживший спартанец Джон-117. Именно ему предстоит изменить ход войны, когда он оказывается на загадочном инопланетном артефакте Halo — мире-кольце.

Качество: WEB-DL 720p
Формат: MKV

Видео: MPEG-4 AVC, ~ 3250 Кбит/с, 1280x640, 24.000 fps
Аудио Rus: 48 kHz, AC3, 2/0 (L,R) ch, ~384 kbps avg
Аудио Eng: 48 kHz, E-AC-3 JOC, 3/2 (L,C,R,l,r) + LFE ch, ~768 kbps avg

Общее
Уникальный идентификатор : 174023918071350910066117574003651121904 (0x82EBC998A351F2BFBE1AB32B6CFA12F0)
Полное имя : D:Halo.S01.WEB-DL.720p.LF\Halo.S01E01.Contact.AMZN.WEB-DL.720p.mkv
Формат : Matroska
Версия формата : Version 4
Размер файла : 1,82 Гбайт
Продолжительность : 58 м. 56 с.
Общий поток : 4 417 Кбит/сек
Дата кодирования : UTC 2022-04-02 05:17:26
Программа кодирования : mkvmerge v7.9.0 ('Birds') 64bit
Библиотека кодирования : libebml v1.3.1 + libmatroska v1.4.2

Видео
Идентификатор : 1
Формат : AVC
Формат/Информация : Advanced Video Codec
Профиль формата : High@L3.1
Настройки формата : CABAC / 4 Ref Frames
Параметр CABAC формата : Да
Параметр RefFrames формата : 4 кадра
Идентификатор кодека : V_MPEG4/ISO/AVC
Продолжительность : 58 м. 56 с.
Вид битрейта : Постоянный
Битрейт : 3 250 Кбит/сек
Номинальный битрейт : 4 000 Кбит/сек
Ширина : 1 280 пикселей
Высота : 640 пикселей
Соотношение сторон : 2,000
Режим частоты кадров : Постоянный
Частота кадров : 24,000 кадра/сек
Цветовое пространство : YUV
Субдискретизация насыщенности : 4:2:0
Битовая глубина : 8 бит
Тип развёртки : Прогрессивная
Бит/(Пиксели*Кадры) : 0.162
Размер потока : 1,31 Гбайт (72%)
Язык : English
Default : Да
Forced : Нет
Цветовой диапазон : Limited
Основные цвета : BT.709
Характеристики трансфера : BT.709
Коэффициенты матрицы : BT.709

Аудио #1
Идентификатор : 2
Формат : AC-3
Формат/Информация : Audio Coding 3
Коммерческое название : Dolby Digital
Идентификатор кодека : A_AC3
Продолжительность : 58 м. 56 с.
Вид битрейта : Постоянный
Битрейт : 384 Кбит/сек
Каналы : 2 канала
Channel layout : L R
Частота : 48,0 КГц
Частота кадров : 31,250 кадров/сек (1536 SPF)
Метод сжатия : С потерями
Размер потока : 162 Мбайт (9%)
Заголовок : LostFilm
Язык : Russian
Service kind : Complete Main
Default : Да
Forced : Нет

Аудио #2
Идентификатор : 3
Формат : E-AC-3 JOC
Формат/Информация : Enhanced AC-3 with Joint Object Coding
Коммерческое название : Dolby Digital Plus with Dolby Atmos
Идентификатор кодека : A_EAC3
Продолжительность : 58 м. 56 с.
Вид битрейта : Постоянный
Битрейт : 768 Кбит/сек
Каналы : 6 каналов
Channel layout : L R C LFE Ls Rs
Частота : 48,0 КГц
Частота кадров : 31,250 кадров/сек (1536 SPF)
Метод сжатия : С потерями
Размер потока : 324 Мбайт (17%)
Заголовок : original
Язык : English
Service kind : Complete Main
Default : Нет
Forced : Нет
Complexity index : 16
Number of dynamic objects : 15
Bed channel count : 1 канал
Bed channel configuration : LFE

Текст #1
Идентификатор : 4
Формат : UTF-8
Идентификатор кодека : S_TEXT/UTF8
Идентификатор кодека/Информация : UTF-8 Plain Text
Язык : Russian
Default : Нет
Forced : Нет

Текст #2
Идентификатор : 5
Формат : UTF-8
Идентификатор кодека : S_TEXT/UTF8
Идентификатор кодека/Информация : UTF-8 Plain Text
Язык : English
Default : Нет
Forced : Нет

Внимание! Раздача ведётся путём добавления новых серий; при каждом добавлении создаётся новый торрент.
Чтобы начать докачку новой серии, пользователям необходимо сделать следующее:
1. Остановить скачивание;
2. Удалить старый торрент у себя из клиента (старые серии удалять не надо);
3. Скачать новый торрент и запустить его у себя в клиенте вместо старого, при этом указать клиенту путь в старую папку куда и должно происходить скачивание новых серий. Ваш клиент при этом должен произвести хеширование (проверку) старой папки и будет докачивать только те серии, которых у вас ещё нет. Старые серии при этом не удаляются, а продолжают раздаваться! Eсли вы уже удалили старые серии, то предотвратить повторную закачку старых серий можно, отжав галочку в соответствующих местах при запуске нового торрента.

pb.wtf



Скачать Хало через торрент https://i6.imageban.ru/out/2022/03/26/513b7bc478eb3989222970e8ee785560.png Скачать, смотреть онлайн Хало бесплантно в хорошем качестве Описание: В XXVI веке между земными силами Космического командования Объединённых наций и религиозным союзом нескольких инопланетных рас ... 10 10 32
Торрент: Зарегистрирован [2022-05-21 05:41] · скачан: 217 раз
Статус: √ проверено
Размер: 13.4 GB
Как cкачать? Как скачать Хало через торрент | UTorrent

% Раздел Тема Автор DL S | L
Сборники и Сиквелы (48-60 fps) [ 11.95 GB ] Хало / Halo / Сезон: 1 / Серии: 1-9 из 9 [2022 WEB-DLRip - HEVC 1080p 10 bit 60 FPS MVO] dd2d3 Скачать
6 | 0
Зарубежные сериалы [ 6.7 GB ] Хало / Halo / Сезон: 1 / Серии: 1-9 из 9 [2022 WEB-DLRip] MVO [AlexFilm] bober100 Скачать
5 | 1
Зарубежные сериалы [ 29.76 GB ] Хало / Halo / Сезон: 1 / Серии: 1-9 из 9 [2022 WEB-DL 1080p] MVO [AlexFilm] bober100 Скачать
3 | 1
Зарубежные сериалы [ 27.56 GB ] Хало / Halo / Сезон: 1 / Серии: 1-9 из 9 [2022 WEB-DL 1080p] MVO [NewComers] bober100 Скачать
1 | 1
T Зарубежные сериалы [ 5.09 GB ] Хало / Halo / Сезон: 1 / Серии: 1-9 из 9 [2022 WEBRip] MVO [ColdFilm] bober100 Скачать
2 | 2
Зарубежные сериалы [ 28.95 GB ] Хало / Halo / Сезон: 1 / Серия: 1-9 из 9 [2022 WEB-DL 1080p] 2 x MVO GEKADOL Скачать
5 | 3
Зарубежные сериалы [ 842 MB ] Хало / Halo / Сезон: 1 / Серии: 1- из 9 [2022 WEB-DLRip] MVO [LostFilm] bober100 Скачать
1 | 0


Последний раз редактировалось: bober100 (2022-05-21 05:41), всего редактировалось 10 раз(а)

28-11-2019 20:33  

Отключить всю рекламу на сайте

04-04-2022 13:14 Хало Скачать торрент  

Отличный сериал !pb.wtf



18-04-2022 10:05 Хало Скачать торрент  

глянул первую серию.и правда снято очень красиво.спасибо.pb.wtf



30-04-2022 09:36 Хало Скачать торрент  

После "поросёнка Ивана" перестал смотреть. Русофобию и сюда умудрились запихать. Хотя это ещё раньше промелькнуло. Кажется, в 3 или 4 серии.pb.wtf



22-05-2022 04:12 Хало Скачать торрент  

Серебров писал(а):

После "поросёнка Ивана" перестал смотреть. Русофобию и сюда умудрились запихать. Хотя это ещё раньше промелькнуло. Кажется, в 3 или 4 серии.

Пол мира русофобы, а ты про кинцо какое то.pb.wtf



    Дорогой пользователь! Огромная просьба, поблагодарите релизера, оцените раздачу и оставьте свои комментарий, если Вы скачали Хало через торрент бесплатно!
    Комментировать посты могут только пользователи прошедшие не сложную регистрацию
    Показать сообщения:    

    Хало через торрент
    Скачать бесплатно Хало
    Хало скачать торрент
    Хало смотреть онлайн
    Cкачать фильм Хало бесплатно
    Хало скачать торрент в хорошем качестве
    Хало смотреть онлайн бесплатно в хорошем качестве


    Вы не можете начинать темы
    Вы не можете отвечать на сообщения
    Вы не можете редактировать свои сообщения
    Вы не можете удалять свои сообщения
    Вы не можете голосовать в опросах
    Вы не можете прикреплять файлы к сообщениям
    Вы можете скачивать файлы