Доктор Стрэндж

Лицензия

Добыча

Дубляж

Уэнсдэй

1 сезон

Тор

Дубляж

В эфире

Дубляж

Там, где раки поют

MVO

Властелин колец

1 сезон

Deluxe

pack

Рекомендуем

30

Пиратка

ВАЖНО

ВАЖНО

Ghostwire

Пиратка

jed

RePack

nioh2

RePack

RDR2

RePack

NEED FOR SPEED™ PAYBACK

RePack

скачать торрент

Кинопоиск HD

Острые козырьки 6 сезон

6 сезон

FAR CRY 6

RePack

скачать торрент

Лицензия

скачать торрент

MVO

1

1 сезон

скачать торрент

1 сезон

скачать торрент

Лицензия

  

My Little Pony: Новое поколение / My Little Pony: A New Generation (Роберт Каллен, Хосе Луис Уча, Марк Фаттибене) [2021, Мультфильм, фэнтези, комедия, приключения, семейный, WEB-DLRip-AVC] Дубляж [Netflix] от MediaBit

My Little Pony: Новое поколение через торрент pb.wtf

Раздают: 3 [ 0 KB/s ]
Размер: 1.84 GB | Добавлен: 1 год 2 мес. назад | Торрент скачан:338 раз
Смотреть онлайн | Скачать   

03-10-2021 05:43 My Little Pony: Новое поколение Скачать торрент  


My Little Pony: Новое поколение / My Little Pony: A New Generation
Информация Описание:
Название: My Little Pony: Новое поколение
Оригинальное название: My Little Pony: A New Generation
Год выхода: 2021
Жанр: Мультфильм, фэнтези, комедия, приключения, семейный
Режиссер: Роберт Каллен, Хосе Луис Уча, Марк Фаттибене

В ролях: Элизабет Перкинс, Джеймс Марсден, Ванесса Энн Хадженс, Джейн Краковски, Кимико Гленн, Майкл МакКин, София Карсон, Кен Жонг, Фил ЛаМарр

Описание: Не все прекрасно в яркой стране пони: Эквестрию покинула магия, вместо дружбы и гармонии здесь теперь царят тревога и недоверие, а пони разных видов вынуждены жить порознь. Но жизнерадостная земная пони Санни уверена — у этого волшебного мира есть надежда! Вместе с единорожкой Иззи и другими новыми друзьями их ждут невероятные приключения, удивительные дальние страны и головокружительные опасности. И именно маленьким пони по силам совершить огромные подвиги, чтобы вернуть мир и счастье в Эквестрию!



Страна: США, Ирландия, Канада
Студия: Allspark Animation, Aurum Producciones S.A.
Продолжительность: 01:31:29
Перевод: Дублированный - Netflix



Информация о файле:
Кодек: AVC
Формат: MKV
Качество: WEB-DLRip-AVC
Видео: MPEG-4 AVC, 1024x428, 24.000 fps, 1535 kbps
Аудио RU: AC3, 6 ch, 48 kHz, 448 kbps
Аудио EN: AC3, 6 ch, 48 kHz, 448 kbps
Аудио UKR: AC3, 6 ch, 48 kHz, 448 kbps
Субтитры: Русские (Forced, full), украинские (Forced, Full), английские

x264 info: frame I:1305 Avg QP:13.11 size: 84229
x264 info: frame P:34273 Avg QP:17.82 size: 17661
x264 info: frame B:96165 Avg QP:22.67 size: 3519
General
Unique ID : 220399575210287008667568038094444457482 (0xA5CF6A0692484D17EF886FC0CBCC6E0A)
Complete name : D:uTorrentРипы wolf1245My Little Pony- A New Generation.2021.Дубляж.WEB-DLRip-AVC.[wolf1245.MediaBit].mkv
Format : Matroska
Format version : Version 4
File size : 1.84 GiB
Duration : 1 h 31 min
Overall bit rate : 2 882 kb/s
Movie name : My Little Pony: A New Generation.2021.Дубляж.WEB-DLRip-AVC.[wolf1245.MediaBit]
Encoded date : UTC 2021-10-03 05:28:17
Writing application : mkvmerge v61.0.0 ('So') 64-bit
Writing library : libebml v1.4.2 + libmatroska v1.6.4

Video
ID : 1
Format : AVC
Format/Info : Advanced Video Codec
Format profile : [email protected]
Format settings : CABAC / 14 Ref Frames
Format settings, CABAC : Yes
Format settings, Reference frames : 14 frames
Codec ID : V_MPEG4/ISO/AVC
Duration : 1 h 31 min
Bit rate : 1 535 kb/s
Width : 1 024 pixels
Height : 428 pixels
Display aspect ratio : 2.40:1
Frame rate mode : Constant
Frame rate : 24.000 FPS
Color space : YUV
Chroma subsampling : 4:2:0
Bit depth : 8 bits
Scan type : Progressive
Bits/(Pixel*Frame) : 0.146
Stream size : 1 005 MiB (53%)
Title : -=[wolf1245.MediaBit]=-
Writing library : x264 core 161 r3020 d198931
Encoding settings : cabac=1 / ref=14 / deblock=1:-3:-2 / analyse=0x3:0x133 / me=umh / subme=10 / psy=1 / psy_rd=1.00:0.05 / mixed_ref=1 / me_range=32 / chroma_me=1 / trellis=2 / 8x8dct=1 / cqm=0 / deadzone=21,11 / fast_pskip=1 / chroma_qp_offset=-3 / threads=10 / lookahead_threads=2 / sliced_threads=0 / nr=0 / decimate=1 / interlaced=0 / bluray_compat=0 / constrained_intra=0 / bframes=12 / b_pyramid=2 / b_adapt=2 / b_bias=0 / direct=3 / weightb=1 / open_gop=0 / weightp=2 / keyint=240 / keyint_min=24 / scenecut=40 / intra_refresh=0 / rc_lookahead=60 / rc=2pass / mbtree=1 / bitrate=1535 / ratetol=1.0 / qcomp=0.60 / qpmin=0 / qpmax=69 / qpstep=4 / cplxblur=20.0 / qblur=0.5 / vbv_maxrate=50000 / vbv_bufsize=62500 / nal_hrd=none / filler=0 / ip_ratio=1.40 / aq=3:0.80
Language : English
Default : Yes
Forced : No

Audio #1
ID : 2
Format : AC-3
Format/Info : Audio Coding 3
Commercial name : Dolby Digital
Codec ID : A_AC3
Duration : 1 h 31 min
Bit rate mode : Constant
Bit rate : 448 kb/s
Channel(s) : 6 channels
Channel layout : L R C LFE Ls Rs
Sampling rate : 48.0 kHz
Frame rate : 31.250 FPS (1536 SPF)
Compression mode : Lossy
Stream size : 293 MiB (16%)
Title : Дубляж | Netflix
Language : Russian
Service kind : Complete Main
Default : Yes
Forced : No

Audio #2
ID : 3
Format : AC-3
Format/Info : Audio Coding 3
Commercial name : Dolby Digital
Codec ID : A_AC3
Duration : 1 h 31 min
Bit rate mode : Constant
Bit rate : 448 kb/s
Channel(s) : 6 channels
Channel layout : L R C LFE Ls Rs
Sampling rate : 48.0 kHz
Frame rate : 31.250 FPS (1536 SPF)
Compression mode : Lossy
Stream size : 293 MiB (16%)
Title : UKR
Language : Ukrainian
Service kind : Complete Main
Default : No
Forced : No

Audio #3
ID : 4
Format : AC-3
Format/Info : Audio Coding 3
Commercial name : Dolby Digital
Codec ID : A_AC3
Duration : 1 h 31 min
Bit rate mode : Constant
Bit rate : 448 kb/s
Channel(s) : 6 channels
Channel layout : L R C LFE Ls Rs
Sampling rate : 48.0 kHz
Frame rate : 31.250 FPS (1536 SPF)
Compression mode : Lossy
Stream size : 293 MiB (16%)
Title : English | Original
Language : English
Service kind : Complete Main
Default : No
Forced : No

Text #1
ID : 5
Format : UTF-8
Codec ID : S_TEXT/UTF8
Codec ID/Info : UTF-8 Plain Text
Duration : 1 h 9 min
Bit rate : 1 b/s
Count of elements : 20
Stream size : 834 Bytes (0%)
Title : Forced
Language : Russian
Default : Yes
Forced : Yes

Text #2
ID : 6
Format : UTF-8
Codec ID : S_TEXT/UTF8
Codec ID/Info : UTF-8 Plain Text
Duration : 1 h 29 min
Bit rate : 88 b/s
Count of elements : 1382
Stream size : 57.9 KiB (0%)
Title : Russian
Language : Russian
Default : No
Forced : No

Text #3
ID : 7
Format : UTF-8
Codec ID : S_TEXT/UTF8
Codec ID/Info : UTF-8 Plain Text
Duration : 15 min 24 s
Bit rate : 1 b/s
Count of elements : 2
Stream size : 118 Bytes (0%)
Title : Forced
Language : Ukrainian
Default : No
Forced : No

Text #4
ID : 8
Format : UTF-8
Codec ID : S_TEXT/UTF8
Codec ID/Info : UTF-8 Plain Text
Duration : 1 h 29 min
Bit rate : 85 b/s
Count of elements : 1394
Stream size : 56.0 KiB (0%)
Title : Ukrainian
Language : Ukrainian
Default : No
Forced : No

Text #5
ID : 9
Format : UTF-8
Codec ID : S_TEXT/UTF8
Codec ID/Info : UTF-8 Plain Text
Duration : 1 h 27 min
Bit rate : 102 b/s
Count of elements : 1722
Stream size : 65.2 KiB (0%)
Title : English
Language : English
Default : No
Forced : No
Релиз от: amp;




Скачать My Little Pony: Новое поколение через торрент https://i115.fastpic.org/big/2021/1003/94/9847dec505741ed51208d72d61100094.jpg Скачать, смотреть онлайн My Little Pony: Новое поколение бесплантно в хорошем качестве Описание: Название: My Little Pony: Новое поколение Оригинальное название: My Little Pony: A New Generation Год выхода: 2021 Жанр: ... 10 10 6
Торрент: Зарегистрирован [2021-10-03 05:43] · скачан: 338 раз
Статус: √ проверено
Размер: 1.84 GB
Как cкачать? Как скачать My Little Pony: Новое поколение через торрент | UTorrent

28-11-2019 20:33  


Отключить вcю реклaмy на сайте, в т.ч. и в плеере онлайн просмотра!

03-10-2021 06:13 My Little Pony: Новое поколение Скачать торрент  

Мне 47 но это мои любимый мульт ! Спасибо ! ( а вот свинку Пеппу не уважаю )



07-04-2022 07:58 My Little Pony: Новое поколение Скачать торрент  

МОДЕРАТОР0674 писал(а):

Мне 47 но это мои любимый мульт ! Спасибо ! ( а вот свинку Пеппу не уважаю )

За свинку Пеппу бью костетом!



07-04-2022 09:07 My Little Pony: Новое поколение Скачать торрент  

МОДЕРАТОР0674 писал(а):

Мне 47 но это мои любимый мульт ! Спасибо ! ( а вот свинку Пеппу не уважаю )

это потому, что свинью пепу сел смотреть без марьванны?))



    Дорогой пользователь! Огромная просьба, поблагодарите релизера, оцените раздачу и оставьте свои комментарий, если Вы скачали My Little Pony: Новое поколение через торрент бесплатно!!
    Комментировать посты могут только пользователи прошедшие не сложную регистрацию
    Показать сообщения:    


    My Little Pony: Новое поколение через торрент
    Скачать бесплатно My Little Pony: Новое поколение
    My Little Pony: Новое поколение скачать торрент
    My Little Pony: Новое поколение смотреть онлайн
    Cкачать фильм My Little Pony: Новое поколение бесплатно
    My Little Pony: Новое поколение скачать торрент в хорошем качестве
    My Little Pony: Новое поколение смотреть онлайн бесплатно в хорошем качестве
    Вы не можете начинать темы
    Вы не можете отвечать на сообщения
    Вы не можете редактировать свои сообщения
    Вы не можете удалять свои сообщения
    Вы не можете голосовать в опросах
    Вы не можете прикреплять файлы к сообщениям
    Вы можете скачивать файлы
    My Little Pony: Новое поколение / My Little Pony: A New Generation [2021, Мультфильм, фэнтези, комедия, приключения, семейный, WEB-DLRip-AVC] Дубляж [Netflix] от MediaBit смотреть онлайн, скачать торрент picoco.icu