Всегда рабочее зеркало без VPN и Proxy просто перед .vidak.icu напиши любое слово или цифру, Пример http://w4mo.vidak.icu

MVO

Лицензия

1 сезон

1

1 сезон

iTunes

1 сезон

13

1 сезон

Deluxe

pack

Рекомендуем

Пиратка

30

ВАЖНО

RePack

MK11

RePack

jed

RePack

fifa19

RePack

RDR2

RePack

NEED FOR SPEED™ PAYBACK

Кинопоиск HD

6 сезон

 Острые козырьки 6 сезон

Все сериалы

все сериалы на PB.wtf

RePack

FAR CRY 5

Anonymous, нам критически не хватает 2100 руб. на оплату серверов и переферии за МАЙ, помоги нам пожалуйста, вся надежда только на тебя. В благодарность мы отключим тебе всю рекламу на сайте!

×
  
Magnet ссылка

Костюм / The Outfit (Грэм Мур) [2022, Драма, криминал, WEB-DLRip-AVC] DVO [Pazl Voice] pb.wtf

Костюм через торрент pb.wtf

Размер: 2.22 GB | Добавлен: 2 мес. 14 д. назад | Торрент скачан:159 раз
Смотреть онлайн Костюм | Скачать    Ребята, помогите собрать деньги на оплату серверов!!!

11-04-2022 17:16 Костюм Скачать торрент  

Костюм
The Outfit

Год выпуска: 2022
Страна: США
Выпущено: FilmNation Entertainment, Focus Features, Scoop Productions (II)
Жанр: Драма, криминал
Продолжительность: 01:45:22
Перевод: Любительский (двухголосый) | Pazl Voice
Субтитры: Aнглийские

Режиссер: Грэм Мур

rating

В ролях: Зои Дойч, Марк Райлэнс, Дилан О’Брайен, Никки Амука-Берд, Саймон Рассел Бил, Джонатан МакКлейн, Алан Мехдизаде, Чиеду Агбор, Михал Форейтек, Скуп Вассерштейн, Майкл Аддо, Стив Чатфилд, Джон Гамли-Мейсон, Райан Холл, Лаурис Карклинс, Уильям Китч, Стивен Нокс, Джонни Флинн

Описание: История гениального портного Леонарда, который шил костюмы для успешных английских джентльменов на улице Сэвил-Роу. Но по стечению обстоятельств он вынужден переехать в Чикаго и открыть дело там. Но обычные люди не могут позволить себе такие костюмы. А вот гангстеры.

Качество: WEB-DLRip-AVC
Формат: MKV

Видео: MPEG-4 AVC, 2125 Кбит/с, 1024x512
Аудио #1: AC3, 6 ch, 448 Кбит/с | RUS |
Аудио #2: AC3, 6 ch, 448 Кбит/с | ENG |
скриншот  скриншот  скриншот  скриншот  скриншот  

General
Unique ID : 319002019923027048470010716597376032908 (0xEFFD8DE342CEA6F6CB7FA1AE8664A08C)
Complete name : E:TorrentsThe.Outfit.2022.AVC_от New-Team_by_JNS82.mkv
Format : Matroska
Format version : Version 4
File size : 2.22 GiB
Duration : 1 h 45 min
Overall bit rate : 3 020 kb/s
Movie name : The.Outfit.2022.AVC_от New-Team_by_JNS82
Encoded date : UTC 2022-04-11 16:29:28
Writing application : mkvmerge v59.0.0 ('Shining Star') 64-bit
Writing library : libebml v1.4.2 + libmatroska v1.6.4

Video
ID : 1
Format : AVC
Format/Info : Advanced Video Codec
Format profile : High@L4.1
Format settings : CABAC / 12 Ref Frames
Format settings, CABAC : Yes
Format settings, Reference : 12 frames
Codec ID : V_MPEG4/ISO/AVC
Duration : 1 h 45 min
Bit rate : 2 125 kb/s
Width : 1 024 pixels
Height : 512 pixels
Display aspect ratio : 2.000
Frame rate mode : Constant
Frame rate : 23.976 (24000/1001) FPS
Color space : YUV
Chroma subsampling : 4:2:0
Bit depth : 8 bits
Scan type : Progressive
Bits/(Pixel*Frame) : 0.169
Stream size : 1.56 GiB (70%)
Writing library : x264 core 164 r3079 d9a19f0
Encoding settings : cabac=1 / ref=12 / deblock=1:-3:-2 / analyse=0x3:0x133 / me=umh / subme=10 / psy=1 / psy_rd=1.00:0.00 / mixed_ref=1 / me_range=32 / chroma_me=1 / trellis=2 / 8x8dct=1 / cqm=0 / deadzone=21,11 / fast_pskip=0 / chroma_qp_offset=-3 / threads=8 / lookahead_threads=2 / sliced_threads=0 / nr=0 / decimate=0 / interlaced=0 / bluray_compat=0 / constrained_intra=0 / bframes=10 / b_pyramid=2 / b_adapt=2 / b_bias=0 / direct=3 / weightb=1 / open_gop=0 / weightp=1 / keyint=240 / keyint_min=23 / scenecut=40 / intra_refresh=0 / rc_lookahead=60 / rc=2pass / mbtree=0 / bitrate=2125 / ratetol=1.0 / qcomp=0.60 / qpmin=0 / qpmax=69 / qpstep=4 / cplxblur=20.0 / qblur=0.5 / vbv_maxrate=50000 / vbv_bufsize=62500 / nal_hrd=none / filler=0 / ip_ratio=1.40 / pb_ratio=1.30 / aq=1:1.00
Default : Yes
Forced : No

Audio #1
ID : 2
Format : AC-3
Format/Info : Audio Coding 3
Commercial name : Dolby Digital
Codec ID : A_AC3
Duration : 1 h 45 min
Bit rate mode : Constant
Bit rate : 448 kb/s
Channel(s) : 6 channels
Channel layout : L R C LFE Ls Rs
Sampling rate : 48.0 kHz
Frame rate : 31.250 FPS (1536 SPF)
Compression mode : Lossy
Stream size : 338 MiB (15%)
Title : [DVO] Pazl Voice
Language : Russian
Service kind : Complete Main
Default : Yes
Forced : No

Audio #2
ID : 3
Format : AC-3
Format/Info : Audio Coding 3
Commercial name : Dolby Digital
Codec ID : A_AC3
Duration : 1 h 45 min
Bit rate mode : Constant
Bit rate : 448 kb/s
Channel(s) : 6 channels
Channel layout : L R C LFE Ls Rs
Sampling rate : 48.0 kHz
Frame rate : 31.250 FPS (1536 SPF)
Compression mode : Lossy
Stream size : 338 MiB (15%)
Language : English
Service kind : Complete Main
Default : No
Forced : No

Text
ID : 4
Format : UTF-8
Codec ID : S_TEXT/UTF8
Codec ID/Info : UTF-8 Plain Text
Duration : 1 h 44 min
Bit rate : 61 b/s
Count of elements : 1649
Stream size : 47.2 KiB (0%)
Language : English
Default : No
Forced : No

pb.wtf



Скачать Костюм через торрент https://i117.fastpic.org/big/2022/0411/94/8e98d62363cfac4eacc850f235a55294.jpeg Скачать, смотреть онлайн Костюм бесплантно в хорошем качестве Описание: История гениального портного Леонарда, который шил костюмы для успешных английских джентльменов на улице Сэвил-Роу. Но по ... 8.8 10 9
Info! Золотая раздача, скачанное не засчитывается.
Торрент: Зарегистрирован [2022-04-11 17:16] · скачан: 159 раз
Статус: T временная
Размер: 2.22 GB
Как cкачать? Как скачать Костюм через торрент | UTorrent

% Раздел Тема Автор DL S | L
T Фильмы 2022 (Звук TS, Cam, VO, DVO) [ 2.09 GB ] Костюм / The Outfit [2022 WEB-DLRip-AVC] DVO [Pazl Voice] от ExKinoRay Lithuania Скачать
3 | 0
T Фильмы (WEB-DL 720p, 1080p) [ 5.84 GB ] Костюм / The Outfit [2022 WEB-DL 1080p] DVO [Pazl Voice] bober100 Скачать
4 | 0

28-11-2019 20:33  

Отключить всю рекламу на сайте

    Дорогой пользователь! Огромная просьба, поблагодарите релизера, оцените раздачу и оставьте свои комментарий, если Вы скачали Костюм через торрент бесплатно!
    Комментировать посты могут только пользователи прошедшие не сложную регистрацию
    Показать сообщения:    

    Костюм через торрент
    Скачать бесплатно Костюм
    Костюм скачать торрент
    Костюм смотреть онлайн
    Cкачать фильм Костюм бесплатно
    Костюм скачать торрент в хорошем качестве
    Костюм смотреть онлайн бесплатно в хорошем качестве


    Вы можете начинать темы
    Вы можете отвечать на сообщения
    Вы не можете редактировать свои сообщения
    Вы не можете удалять свои сообщения
    Вы не можете голосовать в опросах
    Вы не можете прикреплять файлы к сообщениям
    Вы можете скачивать файлы