Всегда рабочее зеркало без VPN и Proxy просто перед .vidak.icu напиши любое слово или цифру, Пример http://jhez.vidak.icu

MVO

Лицензия

1 сезон

1

1 сезон

iTunes

1 сезон

13

1 сезон

Deluxe

pack

Рекомендуем

Пиратка

30

ВАЖНО

RePack

MK11

RePack

jed

RePack

fifa19

RePack

RDR2

RePack

NEED FOR SPEED™ PAYBACK

Кинопоиск HD

6 сезон

 Острые козырьки 6 сезон

Все сериалы

все сериалы на PB.wtf

RePack

FAR CRY 5

Anonymous, нам критически не хватает 2100 руб. на оплату серверов и переферии за МАЙ, помоги нам пожалуйста, вся надежда только на тебя. В благодарность мы отключим тебе всю рекламу на сайте!

×
  
Magnet ссылка

Костюм / The Outfit (Грэм Мур) [2022, Драма, Криминал, WEB-DLRip-AVC] DVO [Pazl Voice] от ExKinoRay pb.wtf

Костюм через торрент pb.wtf

Раздают: 2 [ 0 KB/s ]
Размер: 2.09 GB | Добавлен: 2 мес. 12 д. назад | Торрент скачан:105 раз
Смотреть онлайн Костюм | Скачать    Ребята, помогите собрать деньги на оплату серверов!!!

12-04-2022 16:55 Костюм Скачать торрент  


Костюм / The Outfit
Информация о фильме:
Название: Костюм
Оригинальное название: The Outfit
Год выхода: 2022
Жанр: Драма, Криминал
Режиссер: Грэм Мур
В ролях: Зои Дойч, Марк Райлэнс, Дилан О’Брайен, Никки Амука-Берд, Саймон Рассел Бил, Джонатан МакКлейн, Алан Мехдизаде, Чиеду Агбор, Михал Форейтек, Скуп Вассерштейн, Майкл Аддо, Стив Чатфилд, Джон Гамли-Мейсон, Райан Холл, Лаурис Карклинс, Уильям Китч, Стивен Нокс, Джонни Флинн

Описание: История гениального портного Леонарда, который шил костюмы для успешных английских джентльменов на улице Сэвил-Роу. Но по стечению обстоятельств он вынужден переехать в Чикаго и открыть дело там. Но обычные люди не могут позволить себе такие костюмы. А вот гангстеры.



Страна: США
Студия: FilmNation Entertainment, Focus Features, Scoop Productions (II)
Продолжительность: 01:45:22
Перевод: Любительский, двухголосый закадровый - Pazl Voice



Информация о файле:
Кодек: AVC
Формат: MKV
Качество: WEB-DLRip-AVC
Видео: MPEG-4 AVC, 1024x512, 23.976 fps, 1950 kbps
Аудио RU: AC3, 6 ch, 48 kHz, 448 kbps
Аудио EN: AC3, 6 ch, 48 kHz, 448 kbps
Субтитры: Английские

x264 info: frame I:1370 Avg QP:12.08 size: 80051
x264 info: frame P:33240 Avg QP:15.52 size: 22605
x264 info: frame B:116976 Avg QP:16.52 size: 5796
General
Unique ID : 219909860570401271419001500740751334945 (0xA571193AD3536E80A58C6D62D46E1E21)
Complete name : D:uTorrentРипы wolf1245The Outfit.2022.DVO.Pazl.x264.WEB-DLRip-AVC.[wolf1245.ExKinoRay].mkv
Format : Matroska
Format version : Version 4
File size : 2.09 GiB
Duration : 1 h 45 min
Overall bit rate : 2 846 kb/s
Movie name : The Outfit.2022.DVO.Pazl.x264.WEB-DLRip-AVC.[wolf1245.ExKinoRay]
Encoded date : UTC 2022-04-12 16:38:55
Writing application : mkvmerge v67.0.0 ('Under Stars') 64-bit
Writing library : libebml v1.4.2 + libmatroska v1.6.4
Video
ID : 1
Format : AVC
Format/Info : Advanced Video Codec
Format profile : High@L4.1
Format settings : CABAC / 12 Ref Frames
Format settings, CABAC : Yes
Format settings, Reference frames : 12 frames
Codec ID : V_MPEG4/ISO/AVC
Duration : 1 h 45 min
Bit rate : 1 950 kb/s
Width : 1 024 pixels
Height : 512 pixels
Display aspect ratio : 2.000
Frame rate mode : Constant
Frame rate : 23.976 (24000/1001) FPS
Color space : YUV
Chroma subsampling : 4:2:0
Bit depth : 8 bits
Scan type : Progressive
Bits/(Pixel*Frame) : 0.155
Stream size : 1.43 GiB (68%)
Title : -=[wolf1245.ExKinoRay]=-
Writing library : x264 core 163 r3060 5db6aa6
Encoding settings : cabac=1 / ref=12 / deblock=1:-2:-2 / analyse=0x3:0x133 / me=umh / subme=11 / psy=1 / psy_rd=1.00:0.15 / mixed_ref=1 / me_range=32 / chroma_me=1 / trellis=2 / 8x8dct=1 / cqm=0 / deadzone=22,11 / fast_pskip=1 / chroma_qp_offset=-3 / threads=10 / lookahead_threads=2 / sliced_threads=0 / nr=0 / decimate=0 / interlaced=0 / bluray_compat=0 / constrained_intra=0 / bframes=10 / b_pyramid=2 / b_adapt=2 / b_bias=0 / direct=3 / weightb=1 / open_gop=0 / weightp=2 / keyint=240 / keyint_min=24 / scenecut=40 / intra_refresh=0 / rc_lookahead=60 / rc=2pass / mbtree=0 / bitrate=1950 / ratetol=1.0 / qcomp=0.60 / qpmin=0 / qpmax=69 / qpstep=4 / cplxblur=20.0 / qblur=0.5 / vbv_maxrate=50000 / vbv_bufsize=62500 / nal_hrd=none / filler=0 / ip_ratio=1.40 / pb_ratio=1.30 / aq=3:0.90
Language : English
Default : Yes
Forced : No
Color range : Limited
Color primaries : BT.709
Transfer characteristics : BT.709
Matrix coefficients : BT.709
Audio #1
ID : 2
Format : AC-3
Format/Info : Audio Coding 3
Commercial name : Dolby Digital
Codec ID : A_AC3
Duration : 1 h 45 min
Bit rate mode : Constant
Bit rate : 448 kb/s
Channel(s) : 6 channels
Channel layout : L R C LFE Ls Rs
Sampling rate : 48.0 kHz
Frame rate : 31.250 FPS (1536 SPF)
Compression mode : Lossy
Stream size : 338 MiB (16%)
Title : DVO | Pazl Voice | RUS
Language : Russian
Service kind : Complete Main
Default : Yes
Forced : No
Audio #2
ID : 3
Format : AC-3
Format/Info : Audio Coding 3
Commercial name : Dolby Digital
Codec ID : A_AC3
Duration : 1 h 45 min
Bit rate mode : Constant
Bit rate : 448 kb/s
Channel(s) : 6 channels
Channel layout : L R C LFE Ls Rs
Sampling rate : 48.0 kHz
Frame rate : 31.250 FPS (1536 SPF)
Compression mode : Lossy
Stream size : 338 MiB (16%)
Title : Original | ENG
Language : English
Service kind : Complete Main
Default : Yes
Forced : No
Text #1
ID : 4
Format : UTF-8
Codec ID : S_TEXT/UTF8
Codec ID/Info : UTF-8 Plain Text
Duration : 1 h 44 min
Bit rate : 61 b/s
Count of elements : 1649
Stream size : 47.2 KiB (0%)
Title : English
Language : English
Default : No
Forced : No
Text #2
ID : 5
Format : UTF-8
Codec ID : S_TEXT/UTF8
Codec ID/Info : UTF-8 Plain Text
Duration : 1 h 44 min
Bit rate : 62 b/s
Count of elements : 1727
Stream size : 48.2 KiB (0%)
Title : English [SDH]
Language : English
Default : No
Forced : No
Релиз от:
Автор релиза:
pb.wtf



Скачать Костюм через торрент http://i117.fastpic.org/big/2022/0411/94/8e98d62363cfac4eacc850f235a55294.jpeg Скачать, смотреть онлайн Костюм бесплантно в хорошем качестве Описание: История гениального портного Леонарда, который шил костюмы для успешных английских джентльменов на улице Сэвил-Роу. Но по ... 10 10 3
Торрент: Зарегистрирован [2022-04-12 16:55] · скачан: 105 раз
Статус: T временная
Размер: 2.09 GB
Как cкачать? Как скачать Костюм через торрент | UTorrent

28-11-2019 20:33  

Отключить всю рекламу на сайте

    Дорогой пользователь! Огромная просьба, поблагодарите релизера, оцените раздачу и оставьте свои комментарий, если Вы скачали Костюм через торрент бесплатно!
    Комментировать посты могут только пользователи прошедшие не сложную регистрацию
    Показать сообщения:    

    Костюм через торрент
    Скачать бесплатно Костюм
    Костюм скачать торрент
    Костюм смотреть онлайн
    Cкачать фильм Костюм бесплатно
    Костюм скачать торрент в хорошем качестве
    Костюм смотреть онлайн бесплатно в хорошем качестве


    Вы можете начинать темы
    Вы можете отвечать на сообщения
    Вы не можете редактировать свои сообщения
    Вы не можете удалять свои сообщения
    Вы не можете голосовать в опросах
    Вы не можете прикреплять файлы к сообщениям
    Вы можете скачивать файлы