Всегда рабочее зеркало без VPN и Proxy просто перед .vidak.icu напиши любое слово или цифру, Пример http://dzp8.vidak.icu

MVO

Лицензия

1 сезон

1

1 сезон

iTunes

1 сезон

13

1 сезон

Deluxe

pack

Рекомендуем

Пиратка

30

ВАЖНО

RePack

MK11

RePack

jed

RePack

fifa19

RePack

RDR2

RePack

NEED FOR SPEED™ PAYBACK

Кинопоиск HD

6 сезон

 Острые козырьки 6 сезон

Все сериалы

все сериалы на PB.wtf

RePack

FAR CRY 5
  
Magnet ссылка

Хочу замуж (Соня Карпунина) [2022, Комедия, мелодрама, WEB-DL 720p] [OKKO] pb.wtf

Хочу замуж через торрент pb.wtf

Раздают: 1 [ 0 KB/s ]
Размер: 1.98 GB | Добавлен: 1 мес. 20 д. назад | Торрент скачан:42 раза
Смотреть онлайн Хочу замуж | Скачать    Ребята, помогите собрать деньги на оплату серверов!!!

21-04-2022 17:29 Хочу замуж Скачать торрент  

Хочу замуж
Год выпуска: 2022
Страна: Россия
Выпущено: Peak Media, START
Жанр: Комедия, мелодрама
Продолжительность: 01:45:40
Перевод: Не требуется | OKKO
Субтитры: отсутствуют

Режиссер: Соня Карпунина

rating

В ролях: Милош Бикович, Кристина Асмус, Сергей Гилев, Марина Александрова, Юлия Ауг, Олег Комаров, Анастасия Уколова, Агния Кузнецова, Надежда Сысоева, Анна Цуканова-Котт

Описание: У журналистки Любы всё идёт по плану: работа ведущей на телеканале, успешный и богатый жених Роберт. План катится к чертям, когда у Любы садится телефон, и она просит позвонить с телефона случайного прохожего. Им оказался Сергей, у которого тоже жизнь текла спокойно и размеренно до этого дня. Эта встреча запустит череду событий, которая полностью поменяет и жизнь Любы и Сергея, и их самих.

Качество: WEB-DL 720p
Формат: MKV

Видео: MPEG-4 AVC, 1272x530 at 24.000 fps, x264@L4.1, ~2296 kbps
Аудио: 48 kHz, AC3 Dolby Digital, 3/2 (L, C, R, l, r) + LFE ch, ~384 Kbps
скриншот  скриншот  скриншот  скриншот  скриншот  

x264 [info]: frame I:1420 Avg QP:16.55 size: 65653
x264 [info]: frame P:31085 Avg QP:18.29 size: 25264
x264 [info]: frame B:119673 Avg QP:20.10 size: 7864
x264 [info]: consecutive B-frames: 2.1% 2.8% 6.9% 19.4% 19.8% 19.1% 5.7% 3.5% 18.4% 1.8% 0.5%

General
Unique ID : 270970497591944626652225864991855685547 (0xCBDB05004C0F777F4EF101D3ACB12FAB)
Complete name : D:Хочу замуж (2022) WEB-DLRip 720p от DoMiNoХочу.замуж.2022.6ch.WEB-DLRip.x264.720p.mkv
Format : Matroska
Format version : Version 4
File size : 1.98 GiB
Duration : 1 h 45 min
Overall bit rate : 2 682 kb/s
Encoded date : UTC 2022-05-12 17:30:51
Writing application : mkvmerge v63.0.0 ('Everything') 64-bit
Writing library : libebml v1.4.2 + libmatroska v1.6.4
Cover : Yes
Attachments : cover.jpg / cover 2.jpg

Video
ID : 1
Format : AVC
Format/Info : Advanced Video Codec
Format profile : High@L4.1
Format settings : CABAC / 12 Ref Frames
Format settings, CABAC : Yes
Format settings, Reference : 12 frames
Codec ID : V_MPEG4/ISO/AVC
Duration : 1 h 45 min
Bit rate : 2 296 kb/s
Width : 1 272 pixels
Height : 530 pixels
Display aspect ratio : 2.40:1
Frame rate mode : Constant
Frame rate : 24.000 FPS
Color space : YUV
Chroma subsampling : 4:2:0
Bit depth : 8 bits
Scan type : Progressive
Bits/(Pixel*Frame) : 0.142
Stream size : 1.69 GiB (86%)
Title : -=DoMiNo=-
Writing library : x264 core 164 r3094 bfc87b7
Encoding settings : cabac=1 / ref=12 / deblock=1:-2:-2 / analyse=0x3:0x133 / me=umh / subme=9 / psy=1 / psy_rd=1.05:0.20 / mixed_ref=1 / me_range=32 / chroma_me=1 / trellis=2 / 8x8dct=1 / cqm=0 / deadzone=21,11 / fast_pskip=0 / chroma_qp_offset=-3 / threads=17 / lookahead_threads=4 / sliced_threads=0 / nr=0 / decimate=1 / interlaced=0 / bluray_compat=0 / constrained_intra=0 / bframes=10 / b_pyramid=2 / b_adapt=2 / b_bias=0 / direct=1 / weightb=1 / open_gop=0 / weightp=2 / keyint=250 / keyint_min=23 / scenecut=40 / intra_refresh=0 / rc_lookahead=60 / rc=crf / mbtree=0 / crf=19.0 / qcomp=0.60 / qpmin=0 / qpmax=69 / qpstep=4 / vbv_maxrate=50000 / vbv_bufsize=62500 / crf_max=0.0 / nal_hrd=none / filler=0 / ip_ratio=1.35 / pb_ratio=1.25 / aq=2:1.00
Language : Russian
Default : Yes
Forced : No
Color range : Limited
Color primaries : BT.709
Transfer characteristics : BT.709
Matrix coefficients : BT.709

Audio
ID : 2
Format : AC-3
Format/Info : Audio Coding 3
Commercial name : Dolby Digital
Codec ID : A_AC3
Duration : 1 h 45 min
Bit rate mode : Constant
Bit rate : 384 kb/s
Channel(s) : 6 channels
Channel layout : L R C LFE Ls Rs
Sampling rate : 44.1 kHz
Frame rate : 28.711 FPS (1536 SPF)
Compression mode : Lossy
Stream size : 290 MiB (14%)
Language : Russian
Service kind : Complete Main
Default : Yes
Forced : No

Menu
00:00:00.000 : :Глава 01
00:07:30.000 : :Глава 02
00:15:00.000 : :Глава 03
00:22:30.000 : :Глава 04
00:30:00.000 : :Глава 05
00:37:30.000 : :Глава 06
00:45:00.000 : :Глава 07
00:52:30.000 : :Глава 08
01:00:00.000 : :Глава 09
01:07:30.000 : :Глава 10
01:15:00.000 : :Глава 11
01:22:30.000 : :Глава 12
01:30:00.000 : :Глава 13
01:37:30.000 : :Глава 14
01:45:00.000 : :Глава 15

pb.wtf



Скачать Хочу замуж через торрент https://i117.fastpic.org/big/2022/0421/36/77b9c5a7cde36418618a376e0c300b36.jpg Скачать, смотреть онлайн Хочу замуж бесплантно в хорошем качестве Описание: У журналистки Любы всё идёт по плану: работа ведущей на телеканале, успешный и богатый жених Роберт. План катится к чертям, когда ... 7 10 6
Торрент: Зарегистрирован [2022-05-12 19:22] · скачан: 42 раз
Статус: √ проверено
Размер: 1.98 GB
Как cкачать? Как скачать Хочу замуж через торрент | UTorrent

% Раздел Тема Автор DL S | L
Наши новые фильмы 2020 - 2022 [ 1.6 GB ] Хочу замуж [2022 WEB-DLRip-AVC] [OKKO] bober100 Скачать
3 | 0
Наши новые фильмы 2020 - 2022 [ 1.46 GB ] Хочу замуж [2022 WEB-DLRip] [OKKO] bober100 Скачать
4 | 0
T Наши новые фильмы 2020 - 2022 [ 1.51 GB ] Хочу замуж [2022 WEB-DLRip-AVC] RUS от ExKinoRay Lithuania Скачать
8 | 0
Наши фильмы (HD, WEB-DL 720p, 1080p) [ 3.97 GB ] Хочу замуж [2022 WEB-DL 1080p] [OKKO] bober100 Скачать
4 | 0
Наши фильмы (HD, WEB-DL 720p, 1080p) [ 2.43 GB ] Хочу замуж [2013 HDTVRip 720p] PROCTOLOG Скачать
1 | 0
Наши фильмы 2013 [ 1.37 GB ] Хочу замуж [2013 SatRip] Weliar Скачать
1 | 0

28-11-2019 20:33  

Отключить всю рекламу на сайте

    Дорогой пользователь! Огромная просьба, поблагодарите релизера, оцените раздачу и оставьте свои комментарий, если Вы скачали Хочу замуж через торрент бесплатно!
    Комментировать посты могут только пользователи прошедшие не сложную регистрацию
    Показать сообщения:    

    Хочу замуж через торрент
    Скачать бесплатно Хочу замуж
    Хочу замуж скачать торрент
    Хочу замуж смотреть онлайн
    Cкачать фильм Хочу замуж бесплатно
    Хочу замуж скачать торрент в хорошем качестве
    Хочу замуж смотреть онлайн бесплатно в хорошем качестве


    Вы не можете начинать темы
    Вы не можете отвечать на сообщения
    Вы не можете редактировать свои сообщения
    Вы не можете удалять свои сообщения
    Вы не можете голосовать в опросах
    Вы не можете прикреплять файлы к сообщениям
    Вы можете скачивать файлы