Всегда рабочее зеркало без VPN и Proxy просто перед .vidak.icu напиши любое слово или цифру, Пример http://eekz.vidak.icu

MVO

Лицензия

1 сезон

1

1 сезон

iTunes

1 сезон

13

1 сезон

Deluxe

pack

Рекомендуем

Пиратка

30

ВАЖНО

RePack

MK11

RePack

jed

RePack

fifa19

RePack

RDR2

RePack

NEED FOR SPEED™ PAYBACK

Кинопоиск HD

6 сезон

 Острые козырьки 6 сезон

Все сериалы

все сериалы на PB.wtf

RePack

FAR CRY 5

Anonymous, нам критически не хватает 2100 руб. на оплату серверов и переферии за МАЙ, помоги нам пожалуйста, вся надежда только на тебя. В благодарность мы отключим тебе всю рекламу на сайте!

×
  
Magnet ссылка

9 жизней / Nine Bullets (Джиджи Гастон) [2022, Триллер, WEB-DL 1080p] DUB [ВЕЛЕС] pb.wtf

9 жизней через торрент pb.wtf

Раздают: 3 [ 36 KB/s ]
Размер: 4.99 GB | Добавлен: 1 мес. 13 д. назад | Торрент скачан:99 раз
Смотреть онлайн 9 жизней | Скачать    Ребята, помогите собрать деньги на оплату серверов!!!

23-04-2022 09:41 9 жизней Скачать торрент  

9 жизней
Nine Bullets

Год выпуска: 2022
Страна: США
Выпущено: Foresight Entertainment, Pop Films.Screen Media Films
Жанр: Триллер
Продолжительность: 01:36:33
Перевод: Дублированный | ВЕЛЕС
Субтитры: Английские

Режиссер: Джиджи Гастон

rating

В ролях: Лина Хиди, Дин Скотт Васкес, Сэм Уортингтон, Кэм Жиганде, Барбара Хёрши, Мартин Сенсмейер, Марк Менчака, Ла Ла Энтони, Стефани Арсила, Марлин Форте

Описание: Бывшая танцовщица решает изменить свою судьбу и во что бы то ни стало спасти мальчика по соседству, жизни которого угрожает мафия в лице ее бывшего возлюбленного.

Качество: WEB-DL 1080p
Формат: MKV

Видео: MPEG-4 AVC, 6633 Кбит/с, 1916x800, 23.976 fps
Аудио #01: 48 kHz, AC3, 5.1, 384 Kbps | Дублированный | RUS |
Аудио #02: 48 kHz, AC3, 5.1, 384 Kbps | Оригинал | ENG |
скриншот  скриншот  скриншот  скриншот  

Complete name : 9.zhizney.2022.WEB-DL.1080p.ELEKTRI4KA.UNIONGANG.mkv
Format : Matroska
Format version : Version 4
File size : 4.99 GiB
Duration : 1 h 36 min
Overall bit rate : 7 403 kb/s
Movie name : 9 zhizney.2022.WEB-DL.1080p.ELEKTRI4KA.UNIONGANG.
Encoded date : UTC 2022-05-15 16:54:34
Writing application : mkvmerge v8.3.0 ('Over the Horizon') 32bit
Writing library : libebml v1.3.1 + libmatroska v1.4.2

Video
ID : 1
Format : AVC
Format/Info : Advanced Video Codec
Format profile : High@L4
Format settings : CABAC / 5 Ref Frames
Format settings, CABAC : Yes
Format settings, Reference frames : 5 frames
Codec ID : V_MPEG4/ISO/AVC
Duration : 1 h 36 min
Bit rate : 6 633 kb/s
Width : 1 916 pixels
Height : 800 pixels
Display aspect ratio : 2.40:1
Frame rate mode : Constant
Frame rate : 23.976 (23976/1000) FPS
Color space : YUV
Chroma subsampling : 4:2:0
Bit depth : 8 bits
Scan type : Progressive
Bits/(Pixel*Frame) : 0.180
Stream size : 4.47 GiB (90%)
Language : English
Default : Yes
Forced : No
Color range : Limited
Color primaries : BT.709
Transfer characteristics : BT.709
Matrix coefficients : BT.709

Audio #1
ID : 2
Format : AC-3
Format/Info : Audio Coding 3
Commercial name : Dolby Digital
Codec ID : A_AC3
Duration : 1 h 36 min
Bit rate mode : Constant
Bit rate : 384 kb/s
Channel(s) : 6 channels
Channel layout : L R C LFE Ls Rs
Sampling rate : 48.0 kHz
Frame rate : 31.250 FPS (1536 SPF)
Compression mode : Lossy
Stream size : 265 MiB (5%)
Title : DUB (VELES)
Language : Russian
Service kind : Complete Main
Default : Yes
Forced : Yes

Audio #2
ID : 3
Format : AC-3
Format/Info : Audio Coding 3
Commercial name : Dolby Digital
Codec ID : A_AC3
Duration : 1 h 36 min
Bit rate mode : Constant
Bit rate : 384 kb/s
Channel(s) : 6 channels
Channel layout : L R C LFE Ls Rs
Sampling rate : 48.0 kHz
Frame rate : 31.250 FPS (1536 SPF)
Compression mode : Lossy
Stream size : 265 MiB (5%)
Title : Original
Language : English
Service kind : Complete Main
Default : No
Forced : No

Text #1
ID : 4
Format : UTF-8
Codec ID : S_TEXT/UTF8
Codec ID/Info : UTF-8 Plain Text
Duration : 1 h 36 min
Bit rate : 71 b/s
Count of elements : 1789
Stream size : 50.7 KiB (0%)
Title : SDH
Language : English
Default : No
Forced : No

Text #2
ID : 5
Format : UTF-8
Codec ID : S_TEXT/UTF8
Codec ID/Info : UTF-8 Plain Text
Duration : 1 h 36 min
Bit rate : 65 b/s
Count of elements : 1520
Stream size : 46.2 KiB (0%)
Language : English
Default : No
Forced : No

pb.wtf



Скачать 9 жизней через торрент https://i117.fastpic.org/big/2022/0423/a1/b4dd7531d4a1fffdb30c18e5214fd1a1.jpeg Скачать, смотреть онлайн 9 жизней бесплантно в хорошем качестве Описание: Бывшая танцовщица решает изменить свою судьбу и во что бы то ни стало спасти мальчика по соседству, жизни которого угрожает мафия ... 9.9 10 14
Торрент: Зарегистрирован [2022-05-15 18:34] · скачан: 99 раз
Статус: √ проверено
Размер: 4.99 GB
Как cкачать? Как скачать 9 жизней через торрент | UTorrent

% Раздел Тема Автор DL S | L
* Фильмы 2022 [DVDrip, WEB-DLRip, HDrip] (DUB, MVO) [ 704 MB ] 9 жизней / Nine Bullets [2022 HDRip "Велес | "] coc900 Скачать
8 | 0
Фильмы 2022 [DVDrip, WEB-DLRip, HDrip] (DUB, MVO) [ 1.45 GB ] 9 жизней / Nine Bullets [2022 WEB-DLRip-AVC] DUB [ВЕЛЕС] bober100 Скачать
4 | 0
Фильмы 2022 [DVDrip, WEB-DLRip, HDrip] (DUB, MVO) [ 1.46 GB ] 9 жизней / Nine Bullets [2022 WEB-DLRip] DUB [ВЕЛЕС] bober100 Скачать
5 | 1


Последний раз редактировалось: bober100 (2022-05-19 06:33), всего редактировалось 3 раз(а)

28-11-2019 20:33  

Отключить всю рекламу на сайте

23-04-2022 13:23 9 жизней Скачать торрент  

Стивен Сигал сделал подтяжку лицаpb.wtf



23-04-2022 21:35 9 жизней Скачать торрент  

почему только 9 жизней , если перевод 9 пуль?pb.wtf



16-05-2022 10:46 9 жизней Скачать торрент  

ksp1979 писал(а):

почему только 9 жизней , если перевод 9 пуль?

Одна пуля - один труп pb.wtf



16-05-2022 19:08 9 жизней Скачать торрент  

МОДЕРАТОР0674 писал(а):

Стивен Сигал сделал подтяжку лица

javascript:emoticon(' ')pb.wtf



20-05-2022 14:50 9 жизней Скачать торрент  

Чё то у всех бабей будки еле в кадр влезают pb.wtf



    Дорогой пользователь! Огромная просьба, поблагодарите релизера, оцените раздачу и оставьте свои комментарий, если Вы скачали 9 жизней через торрент бесплатно!
    Комментировать посты могут только пользователи прошедшие не сложную регистрацию
    Показать сообщения:    

    9 жизней через торрент
    Скачать бесплатно 9 жизней
    9 жизней скачать торрент
    9 жизней смотреть онлайн
    Cкачать фильм 9 жизней бесплатно
    9 жизней скачать торрент в хорошем качестве
    9 жизней смотреть онлайн бесплатно в хорошем качестве


    Вы не можете начинать темы
    Вы не можете отвечать на сообщения
    Вы не можете редактировать свои сообщения
    Вы не можете удалять свои сообщения
    Вы не можете голосовать в опросах
    Вы не можете прикреплять файлы к сообщениям
    Вы можете скачивать файлы