Всегда рабочее зеркало без VPN и Proxy просто перед .vidak.icu напиши любое слово или цифру, Пример http://2gk1.vidak.icu

MVO

Лицензия

1 сезон

1

1 сезон

iTunes

1 сезон

13

1 сезон

Deluxe

pack

Рекомендуем

Repack

30

ВАЖНО

RePack

MK11

RePack

jed

RePack

fifa19

RePack

RDR2

RePack

NEED FOR SPEED™ PAYBACK

Кинопоиск HD

6 сезон

 Острые козырьки 6 сезон

Все сериалы

все сериалы на PB.wtf

RePack

FAR CRY 5
  
Magnet ссылка

Слэпфейс / Slapface (Джереми Кипп) [2021, Ужасы, триллер, WEB-DL 1080p] DUB [iTunes] pb.wtf

Слэпфейс через торрент pb.wtf

Раздают: 2 [ 0 KB/s ]
Размер: 3.81 GB | Добавлен: 1 мес. 23 д. назад | Торрент скачан:89 раз
Смотреть онлайн Слэпфейс | Скачать    Ребята, помогите собрать деньги на оплату серверов!!!

24-04-2022 06:31 Слэпфейс Скачать торрент  

Слэпфейс
Slapface

Год выпуска: 2021
Страна: США
Выпущено: Chhibber Mann Productions, Mirror Image Films, Artman Cooper Productions
Жанр: Ужасы, триллер
Продолжительность: 01:26:04
Перевод: Дублированный | iTunes
Субтитры: Английские

Режиссер: Джереми Кипп

rating

В ролях: Аугуст Матуро, Майк К. Мэннинг, Либэ Барер, Мирабель Ли, Бьянка Д'Амброзио, Кьяра Д'Амброзио, Лукас Хэссел, Дэн Хедайя, Аликс Шоттланд, Джон Бэкстрем

Описание: После смерти родителей Лукас живёт со старшим братом. Неприятности начинаются, когда он знакомится с Монстром, живущим в соседнем лесу. Пока не поздно, местный шериф должен остановить Лукаса и Монстра.

Качество: WEB-DL 1080p
Формат: MKV

Видео: h.264 6 078 Кбит/с, 1920x800
Аудио: Russian: AC3, 384 Kb/s (6 ch)
Аудио: English: Е-AC3, 224 Kb/s (2 ch)

Complete name : Slepfeys.2020.AMZN.WEB-DL.1080p.ELEKTRI4KA.UNIONGANG.mkv
Format : Matroska
Format version : Version 4
File size : 3.81 GiB
Duration : 1 h 26 min
Overall bit rate : 6 339 kb/s
Movie name : Slepfeys.2021.AMZN.WEB-DL.1080p.ELEKTRI4KA.UNIONGANG.
Encoded date : UTC 2022-05-12 09:08:47
Writing application : mkvmerge v8.3.0 ('Over the Horizon') 32bit
Writing library : libebml v1.3.1 + libmatroska v1.4.2

Video
ID : 1
Format : AVC
Format/Info : Advanced Video Codec
Format profile : [email protected]
Format settings : CABAC / 4 Ref Frames
Format settings, CABAC : Yes
Format settings, Reference frames : 4 frames
Codec ID : V_MPEG4/ISO/AVC
Duration : 1 h 26 min
Bit rate mode : Constant
Bit rate : 5 729 kb/s
Nominal bit rate : 10 000 kb/s
Width : 1 920 pixels
Height : 800 pixels
Display aspect ratio : 2.40:1
Frame rate mode : Constant
Frame rate : 24.000 FPS
Color space : YUV
Chroma subsampling : 4:2:0
Bit depth : 8 bits
Scan type : Progressive
Bits/(Pixel*Frame) : 0.155
Stream size : 3.44 GiB (90%)
Default : Yes
Forced : No
Color range : Limited
Color primaries : BT.709
Transfer characteristics : BT.709
Matrix coefficients : BT.709

Audio #1
ID : 2
Format : AC-3
Format/Info : Audio Coding 3
Commercial name : Dolby Digital
Codec ID : A_AC3
Duration : 1 h 26 min
Bit rate mode : Constant
Bit rate : 384 kb/s
Channel(s) : 6 channels
Channel layout : L R C LFE Ls Rs
Sampling rate : 48.0 kHz
Frame rate : 31.250 FPS (1536 SPF)
Compression mode : Lossy
Stream size : 236 MiB (6%)
Title : DUB (iTunes)
Language : Russian
Service kind : Complete Main
Default : Yes
Forced : Yes

Audio #2
ID : 3
Format : E-AC-3
Format/Info : Enhanced AC-3
Commercial name : Dolby Digital Plus
Codec ID : A_EAC3
Duration : 1 h 26 min
Bit rate mode : Constant
Bit rate : 224 kb/s
Channel(s) : 2 channels
Channel layout : L R
Sampling rate : 48.0 kHz
Frame rate : 31.250 FPS (1536 SPF)
Compression mode : Lossy
Stream size : 138 MiB (4%)
Title : Original
Language : English
Service kind : Complete Main
Default : No
Forced : No

Text #1
ID : 4
Format : UTF-8
Codec ID : S_TEXT/UTF8
Codec ID/Info : UTF-8 Plain Text
Duration : 1 h 20 min
Bit rate : 27 b/s
Count of elements : 674
Stream size : 16.3 KiB (0%)
Language : English
Default : No
Forced : No

Text #2
ID : 5
Format : UTF-8
Codec ID : S_TEXT/UTF8
Codec ID/Info : UTF-8 Plain Text
Duration : 1 h 25 min
Bit rate : 35 b/s
Count of elements : 1181
Stream size : 22.1 KiB (0%)
Title : SDH
Language : English
Default : No
Forced : No

pb.wtf



Скачать Слэпфейс через торрент https://i117.fastpic.org/big/2022/0512/1f/766563b59015953f864aad8119fb1d1f.jpg Скачать, смотреть онлайн Слэпфейс бесплантно в хорошем качестве Описание: После смерти родителей Лукас живёт со старшим братом. Неприятности начинаются, когда он знакомится с Монстром, живущим в соседнем ... 8.9 10 8
Торрент: Зарегистрирован [2022-05-12 12:01] · скачан: 89 раз
Статус: √ проверено
Размер: 3.81 GB
Как cкачать? Как скачать Слэпфейс через торрент | UTorrent

% Раздел Тема Автор DL S | L
Фильмы 2021 [DVDrip, WEB-DLRip, HDrip] (DUB, MVO) [ 745 MB ] Слэпфейс / Slapface [2021 WEB-DLRip] bober100 Скачать
1 | 0
Фильмы 2021 [DVDrip, WEB-DLRip, HDrip] (DUB, MVO) [ 1.37 GB ] Слэпфейс / Slapface [2021 WEB-DLRip] bober100 Скачать
1 | 0
Фильмы (WEB-DL 720p, 1080p) [ 1.31 GB ] Слэпфейс / Slapface [2021 WEB-DL 720p] bober100 Скачать
3 | 0

28-11-2019 20:33  

Отключить всю рекламу на сайте

    Дорогой пользователь! Огромная просьба, поблагодарите релизера, оцените раздачу и оставьте свои комментарий, если Вы скачали Слэпфейс через торрент бесплатно!
    Комментировать посты могут только пользователи прошедшие не сложную регистрацию
    Показать сообщения:    

    Слэпфейс через торрент
    Скачать бесплатно Слэпфейс
    Слэпфейс скачать торрент
    Слэпфейс смотреть онлайн
    Cкачать фильм Слэпфейс бесплатно
    Слэпфейс скачать торрент в хорошем качестве
    Слэпфейс смотреть онлайн бесплатно в хорошем качестве


    Вы не можете начинать темы
    Вы не можете отвечать на сообщения
    Вы не можете редактировать свои сообщения
    Вы не можете удалять свои сообщения
    Вы не можете голосовать в опросах
    Вы не можете прикреплять файлы к сообщениям
    Вы можете скачивать файлы