Доктор Стрэндж

Лицензия

Добыча

Дубляж

Уэнсдэй

1 сезон

Тор

Дубляж

В эфире

Дубляж

Там, где раки поют

MVO

Властелин колец

1 сезон

Deluxe

pack

Рекомендуем

30

Пиратка

ВАЖНО

ВАЖНО

Ghostwire

Пиратка

jed

RePack

nioh2

RePack

RDR2

RePack

NEED FOR SPEED™ PAYBACK

RePack

скачать торрент

Кинопоиск HD

Острые козырьки 6 сезон

6 сезон

FAR CRY 6

RePack

скачать торрент

Лицензия

скачать торрент

MVO

1

1 сезон

скачать торрент

1 сезон

скачать торрент

Лицензия

  

Золушка и тайна волшебного камня / Ella and the Little Sorcerer (Элис Блехарт) [2021 г., мультфильм, WEB-DLRip, Дубляж "iTunes"]

Золушка и тайна волшебного камня через торрент pb.wtf

Раздают: 1 [ 0 KB/s ]
Размер: 728 MB | Добавлен: 7 мес. назад | Торрент скачан:80 раз
Смотреть онлайн | Скачать   

27-04-2022 17:44 Золушка и тайна волшебного камня Скачать торрент  

Золушка и тайна волшебного камня / Ella and the Little Sorcerer
Год выпуска: 2021
Страна: США / Gold Valley Films
Жанр: мультфильм
Продолжительность: 01:30:38
Перевод: Дубляж (iTunes)

Режиссер: Элис Блехарт

rating

В ролях: Джери Кортни-Остейн, Эшли Борнансин, Тони Аццолино

Описание: Не каждой принцессе нужен защитник: некоторые из них способны сами за себя постоять и, более того, выручить близких из беды. На принца Алекса наложено проклятье, превратившее его в мышь. Золушке предстоит освободить его от злых чар и отправится в незабываемое путешествие вместе со своими обаятельными друзьями.

Качество: WEB-DLRip
Формат: AVI
Видео кодек: DivX
Аудио кодек: MP3
Видео: 640x272 (2.35:1), 24.000 fps, DivX Codec 4.x ~985 kbps avg, 0.24 bit/pixel
Аудио: 48 kHz, MPEG Layer 3, 2 ch, ~128.00 kbps avg

Общее
Полное имя : G:\ФИЛЬМЫ\Золушка и тайна волшебного камня.2021.D.WEB-DLRip.avi
Формат : AVI
Формат/Информация : Audio Video Interleave
Размер файла : 728 Мбайт
Продолжительность : 1 ч. 30 м.
Общий поток : 1 123 Кбит/сек
Программа кодирования : VirtualDubMod 1.5.10.3 | www.virtualdub-fr.org || (build 2550/release)
Библиотека кодирования : VirtualDubMod build 2550/release

Видео
Идентификатор : 0
Формат : MPEG-4 Visual
Профиль формата : Advanced [email protected]
Настройки формата : BVOP2
Параметр BVOP формата : 2
Параметр QPel формата : Нет
Параметр GMC формата : Без точки перехода
Параметр матрицы формата : Default (MPEG)
Идентификатор кодека : DIVX
Идентификатор кодека/Информация : Project Mayo
Идентификатор кодека/Подсказка : DivX 4
Продолжительность : 1 ч. 30 м.
Битрейт : 986 Кбит/сек
Ширина : 640 пикселей
Высота : 272 пикселя
Соотношение сторон : 2,35:1
Частота кадров : 24,000 кадра/сек
Цветовое пространство : YUV
Субдискретизация насыщенности : 4:2:0
Битовая глубина : 8 бит
Тип развёртки : Прогрессивная
Метод сжатия : С потерями
Бит/(Пиксели*Кадры) : 0.236
Размер потока : 639 Мбайт (88%)
Библиотека кодирования : XviD 1.2.1 (UTC 2008-12-04)

Аудио
Идентификатор : 1
Формат : MPEG Audio
Версия формата : Version 1
Профиль формата : Layer 3
Настройки формата : Joint stereo
Идентификатор кодека : 55
Идентификатор кодека/Подсказка : MP3
Продолжительность : 1 ч. 30 м.
Вид битрейта : Постоянный
Битрейт : 128 Кбит/сек
Каналы : 2 канала
Частота : 48,0 КГц
Частота кадров : 41,667 кадра/сек (1152 SPF)
Метод сжатия : С потерями
Размер потока : 83,0 Мбайт (11%)
Выравнивание : Соединение по промежуткам
Продолжительность промежутка : 42 мс. (1,00 видеокадр)
Время предзагрузки промежутка : 504 мс.
Библиотека кодирования : LAME3.99r
Настройки программы : -m j -V 4 -q 2 -lowpass 17 -b 128

ReportBy : MediaInfoLib - v22.03
CreatedOn : UTC 2022-04-27 17:28:46




Скачать Золушка и тайна волшебного камня через торрент https://i117.fastpic.org/big/2022/0427/bc/ab8a4f6d596216cf8ef35430da92c0bc.jpg Скачать, смотреть онлайн Золушка и тайна волшебного камня бесплантно в хорошем качестве Описание: Не каждой принцессе нужен защитник: некоторые из них способны сами за себя постоять и, более того, выручить близких из беды. На ... 5.5 10 2
Торрент: Зарегистрирован [2022-04-27 17:44] · скачан: 80 раз
Статус: √ проверено
Размер: 728 MB
Как cкачать? Как скачать Золушка и тайна волшебного камня через торрент | UTorrent

% Раздел Тема Автор DL S | L
Мультфильмы (48-60 fps) [ 2.69 GB ] Золушка и тайна волшебного камня / Ella and the Little Sorcerer | iTunes | DLRip 720p / 60 FPS iTunes slaventi-69 Скачать
1 | 0

28-11-2019 20:33  


Отключить вcю реклaмy на сайте, в т.ч. и в плеере онлайн просмотра!

    Дорогой пользователь! Огромная просьба, поблагодарите релизера, оцените раздачу и оставьте свои комментарий, если Вы скачали Золушка и тайна волшебного камня через торрент бесплатно!!
    Комментировать посты могут только пользователи прошедшие не сложную регистрацию
    Показать сообщения:    


    Золушка и тайна волшебного камня через торрент
    Скачать бесплатно Золушка и тайна волшебного камня
    Золушка и тайна волшебного камня скачать торрент
    Золушка и тайна волшебного камня смотреть онлайн
    Cкачать фильм Золушка и тайна волшебного камня бесплатно
    Золушка и тайна волшебного камня скачать торрент в хорошем качестве
    Золушка и тайна волшебного камня смотреть онлайн бесплатно в хорошем качестве
    Вы не можете начинать темы
    Вы не можете отвечать на сообщения
    Вы не можете редактировать свои сообщения
    Вы не можете удалять свои сообщения
    Вы не можете голосовать в опросах
    Вы не можете прикреплять файлы к сообщениям
    Вы можете скачивать файлы
    Золушка и тайна волшебного камня / Ella and the Little Sorcerer [2021 г., мультфильм, WEB-DLRip, Дубляж "iTunes"] смотреть онлайн, скачать торрент picoco.icu