Всегда рабочее зеркало без VPN и Proxy просто перед .vidak.icu напиши любое слово или цифру, Пример http://dwuv.vidak.icu

MVO

Лицензия

1 сезон

1

1 сезон

iTunes

1 сезон

13

1 сезон

Deluxe

pack

Рекомендуем

Пиратка

30

ВАЖНО

RePack

MK11

RePack

jed

RePack

fifa19

RePack

RDR2

RePack

NEED FOR SPEED™ PAYBACK

Кинопоиск HD

6 сезон

 Острые козырьки 6 сезон

Все сериалы

все сериалы на PB.wtf

RePack

FAR CRY 5

Anonymous, нам критически не хватает 2100 руб. на оплату серверов и переферии за МАЙ, помоги нам пожалуйста, вся надежда только на тебя. В благодарность мы отключим тебе всю рекламу на сайте!

×
  
Magnet ссылка

Сядь за руль моей машины / Doraibu mai ka / Drive My Car (Рюсукэ Хамагути) [2021, Драма, BDRip 720p] MVO [Кинопоиск HD] pb.wtf

Сядь за руль моей машины через торрент pb.wtf

Раздают: 2 [ 0 KB/s ]
Размер: 7.96 GB | Добавлен: 1 мес. 28 д. назад | Торрент скачан:30 раз
Смотреть онлайн Сядь за руль моей машины | Скачать    Ребята, помогите собрать деньги на оплату серверов!!!

30-04-2022 05:05 Сядь за руль моей машины Скачать торрент  

Сядь за руль моей машины
Doraibu mai ka
Drive My Car

Год выпуска: 2021
Страна: Япония
Студия: Asahi Shimbun Company, The, Bitters End, Bungeishunju
Жанр: Драма
Продолжительность: 02:58:56
Перевод: Профессиональный (многоголосый) | Кинопоиск HD
Субтитры: Русские (Full), английские

Режиссер: Рюсукэ Хамагути

rating

В ролях: Хидэтоси Нисидзима, Токо Миура, Масаки Окада, Рэйка Кирисима, Соня Юань, Сатоко Абэ, Перри Дизон, Ан Хвитае

Описание: Режиссера Юсукэ приглашают поставить «Дядю Ваню» для театрального фестиваля в Хиросиме. По условиям договора он не может сам водить машину, поэтому ему предоставляют девушку-водителя — молчаливую Мисаки. Проводя вместе с ней по несколько часов в день, Юсукэ начинает переосмыслять свои отношения с женой, с которой они жили, казалось, в счастливом браке до ее внезапной смерти два года назад. А Мисаки пытается разобраться с собственным непростым прошлым. «Сядь за руль моей машины» — экранизация рассказа Харуки Мураками.

Качество: BDRip 720p
Формат: MKV

Видео: MPEG-4 AVC, 1280x694, 4827 Kbit/s, 24.000 fps
Аудио #01: 48 kHz, AC3, 5.1, 448 Kbps | Профессиональный многоголосый | Кинопоиск HD | RUS |
Аудио #02: 48 kHz, E-AC3, 5.1, 448 Kbps | Профессиональный многоголосый | Кинопоиск HD | RUS |
Аудио #03: 48 kHz, AC3, 5.1, 640 Kbps | Оригинал | JAP |
скриншот  скриншот  скриншот  скриншот  скриншот  

General
Unique ID : 237040518782621923230998774124223334138 (0xB25457E388E0AA148346C37200E706FA)
Complete name : D:Video1Drive.My.Car.2021.BDRip.720p.seleZen.mkv
Format : Matroska
Format version : Version 4
File size : 7.96 GiB
Duration : 2 h 58 min
Overall bit rate : 6 365 kb/s
Movie name : Doraibu mai kâ AKA Drive My Car 2021 from seleZen
Encoded date : UTC 2022-04-29 21:58:38
Writing application : mkvmerge v59.0.0 ('Shining Star') 64-bit
Writing library : libebml v1.4.2 + libmatroska v1.6.4

Video
ID : 1
Format : AVC
Format/Info : Advanced Video Codec
Format profile : High@L4.1
Format settings : CABAC / 9 Ref Frames
Format settings, CABAC : Yes
Format settings, Reference : 9 frames
Codec ID : V_MPEG4/ISO/AVC
Duration : 2 h 58 min
Bit rate : 4 827 kb/s
Width : 1 280 pixels
Height : 694 pixels
Display aspect ratio : 1.85:1
Frame rate mode : Constant
Frame rate : 24.000 FPS
Color space : YUV
Chroma subsampling : 4:2:0
Bit depth : 8 bits
Scan type : Progressive
Bits/(Pixel*Frame) : 0.226
Stream size : 6.03 GiB (76%)
Title : Dariush
Writing library : x264 core 163 r3059 b684ebe
Encoding settings : cabac=1 / ref=9 / deblock=1:-3:-3 / analyse=0x3:0x133 / me=umh / subme=10 / psy=1 / psy_rd=1.05:0.00 / mixed_ref=1 / me_range=32 / chroma_me=1 / trellis=2 / 8x8dct=1 / cqm=0 / deadzone=21,11 / fast_pskip=0 / chroma_qp_offset=-2 / threads=12 / lookahead_threads=3 / sliced_threads=0 / nr=0 / decimate=0 / interlaced=0 / bluray_compat=0 / constrained_intra=0 / bframes=16 / b_pyramid=2 / b_adapt=2 / b_bias=0 / direct=3 / weightb=1 / open_gop=0 / weightp=2 / keyint=250 / keyint_min=24 / scenecut=40 / intra_refresh=0 / rc_lookahead=60 / rc=crf / mbtree=0 / crf=16.2 / qcomp=0.62 / qpmin=0 / qpmax=69 / qpstep=4 / vbv_maxrate=62500 / vbv_bufsize=78125 / crf_max=0.0 / nal_hrd=none / filler=0 / ip_ratio=1.30 / pb_ratio=1.20 / aq=3:0.75 / zones=252302,257688,crf=21
Language : English
Default : Yes
Forced : No
Color range : Limited
Matrix coefficients : BT.709

Audio #1
ID : 2
Format : AC-3
Format/Info : Audio Coding 3
Commercial name : Dolby Digital
Codec ID : A_AC3
Duration : 2 h 58 min
Bit rate mode : Constant
Bit rate : 448 kb/s
Channel(s) : 6 channels
Channel layout : L R C LFE Ls Rs
Sampling rate : 48.0 kHz
Frame rate : 31.250 FPS (1536 SPF)
Compression mode : Lossy
Stream size : 573 MiB (7%)
Title : MVO [KP]
Language : Russian
Service kind : Complete Main
Default : Yes
Forced : Yes

Audio #2
ID : 3
Format : E-AC-3
Format/Info : Enhanced AC-3
Commercial name : Dolby Digital Plus
Codec ID : A_EAC3
Duration : 2 h 58 min
Bit rate mode : Constant
Bit rate : 448 kb/s
Channel(s) : 6 channels
Channel layout : L R C LFE Ls Rs
Sampling rate : 48.0 kHz
Frame rate : 31.250 FPS (1536 SPF)
Compression mode : Lossy
Stream size : 573 MiB (7%)
Title : MVO [KP]
Language : Russian
Service kind : Complete Main
Default : No
Forced : No

Audio #3
ID : 4
Format : AC-3
Format/Info : Audio Coding 3
Commercial name : Dolby Digital
Codec ID : A_AC3
Duration : 2 h 58 min
Bit rate mode : Constant
Bit rate : 640 kb/s
Channel(s) : 6 channels
Channel layout : L R C LFE Ls Rs
Sampling rate : 48.0 kHz
Frame rate : 31.250 FPS (1536 SPF)
Compression mode : Lossy
Stream size : 819 MiB (10%)
Title : Original
Language : Japanese
Service kind : Complete Main
Default : No
Forced : No

Text #1
ID : 5
Format : UTF-8
Codec ID : S_TEXT/UTF8
Codec ID/Info : UTF-8 Plain Text
Duration : 2 h 54 min
Bit rate : 59 b/s
Count of elements : 1502
Stream size : 76.4 KiB (0%)
Title : Full [KP]
Language : Russian
Default : No
Forced : No

Text #2
ID : 6
Format : UTF-8
Codec ID : S_TEXT/UTF8
Codec ID/Info : UTF-8 Plain Text
Duration : 2 h 52 min
Bit rate : 35 b/s
Count of elements : 1480
Stream size : 44.7 KiB (0%)
Title : Forced
Language : English
Default : No
Forced : No

Text #3
ID : 7
Format : UTF-8
Codec ID : S_TEXT/UTF8
Codec ID/Info : UTF-8 Plain Text
Duration : 2 h 52 min
Bit rate : 36 b/s
Count of elements : 1538
Stream size : 46.1 KiB (0%)
Title : Full
Language : English
Default : No
Forced : No

Text #4
ID : 8
Format : UTF-8
Codec ID : S_TEXT/UTF8
Codec ID/Info : UTF-8 Plain Text
Duration : 2 h 52 min
Bit rate : 37 b/s
Count of elements : 1610
Stream size : 47.8 KiB (0%)
Title : SDH
Language : English
Default : No
Forced : No

Menu
00:00:00.000 : Chapter 01
00:10:35.666 : Chapter 02
00:20:58.791 : Chapter 03
00:30:31.458 : Chapter 04
00:42:51.666 : Chapter 05
00:54:04.958 : Chapter 06
01:04:13.125 : Chapter 07
01:16:21.625 : Chapter 08
01:29:54.291 : Chapter 09
01:41:54.875 : Chapter 10
01:48:58.083 : Chapter 11
01:54:34.458 : Chapter 12
02:00:04.875 : Chapter 13
02:16:14.125 : Chapter 14
02:23:17.416 : Chapter 15
02:31:38.958 : Chapter 16
02:45:36.458 : Chapter 17
02:55:12.750 : Chapter 18

pb.wtf



Скачать Сядь за руль моей машины через торрент https://i117.fastpic.org/big/2022/0430/22/1c6649c02eaa6c463cfbdefb46cf4122.jpg Скачать, смотреть онлайн Сядь за руль моей машины бесплантно в хорошем качестве Описание: Режиссера Юсукэ приглашают поставить «Дядю Ваню» для театрального фестиваля в Хиросиме. По условиям договора он не может сам ... 10 10 2
Торрент: Зарегистрирован [2022-04-30 05:05] · скачан: 30 раз
Статус: √ проверено
Размер: 7.96 GB
Как cкачать? Как скачать Сядь за руль моей машины через торрент | UTorrent

% Раздел Тема Автор DL S | L
Фильмы (Blu-ray, BD-Remux, HDDVD) [ 33.71 GB ] Сядь за руль моей машины / Doraibu mai ka / Drive My Car [2021 BD Remux 1080p] MVO [Кинопоиск HD] bober100 Скачать
1 | 1
Азиатские фильмы [ 10.97 GB ] Сядь за руль моей машины / Doraibu mai ka / Drive My Car [2021 BDRip 1080p] MVO [Кинопоиск HD] bober100 Скачать
2 | 0

28-11-2019 20:33  

Отключить всю рекламу на сайте

    Дорогой пользователь! Огромная просьба, поблагодарите релизера, оцените раздачу и оставьте свои комментарий, если Вы скачали Сядь за руль моей машины через торрент бесплатно!
    Комментировать посты могут только пользователи прошедшие не сложную регистрацию
    Показать сообщения:    

    Сядь за руль моей машины через торрент
    Скачать бесплатно Сядь за руль моей машины
    Сядь за руль моей машины скачать торрент
    Сядь за руль моей машины смотреть онлайн
    Cкачать фильм Сядь за руль моей машины бесплатно
    Сядь за руль моей машины скачать торрент в хорошем качестве
    Сядь за руль моей машины смотреть онлайн бесплатно в хорошем качестве


    Вы не можете начинать темы
    Вы не можете отвечать на сообщения
    Вы не можете редактировать свои сообщения
    Вы не можете удалять свои сообщения
    Вы не можете голосовать в опросах
    Вы не можете прикреплять файлы к сообщениям
    Вы можете скачивать файлы