Всегда рабочее зеркало без VPN и Proxy просто перед .vidak.icu напиши любое слово или цифру, Пример http://ja1l.vidak.icu

MVO

Лицензия

1 сезон

1

1 сезон

iTunes

1 сезон

13

1 сезон

Deluxe

pack

Рекомендуем

Пиратка

30

ВАЖНО

RePack

MK11

RePack

jed

RePack

fifa19

RePack

RDR2

RePack

NEED FOR SPEED™ PAYBACK

Кинопоиск HD

6 сезон

 Острые козырьки 6 сезон

Все сериалы

все сериалы на PB.wtf

RePack

FAR CRY 5

Anonymous, нам критически не хватает 2100 руб. на оплату серверов и переферии за МАЙ, помоги нам пожалуйста, вся надежда только на тебя. В благодарность мы отключим тебе всю рекламу на сайте!

×
  
Magnet ссылка

Волк и лев / Le loup et le lion (Жиль Де Мэтр) [2021, Приключения, семейный, BDRip-AVC] DUB [Мосфильм-Мастер] от ExKinoRay pb.wtf

Волк и лев через торрент pb.wtf

Раздают: 2 [ 11 KB/s ]
Размер: 2.11 GB | Добавлен: 1 мес. 27 д. назад | Торрент скачан:55 раз
Смотреть онлайн Волк и лев | Скачать    Ребята, помогите собрать деньги на оплату серверов!!!

01-05-2022 06:34 Волк и лев Скачать торрент  


Волк и лев / Le loup et le lion / The Wolf and the Lion
Информация о фильме:
Название: Волк и лев
Оригинальное название: Le loup et le lion / The Wolf and the Lion
Год выхода: 2021
Жанр: Приключения, семейный
Режиссер: Жиль Де Мэтр
В ролях: Молли Кунц, Грэм Грин, Чарли Каррик, Дерек Джонс, Риз Слэк, Эван Булиунг, Ребекка Кролл, Виктор Корнфут, Дэниэл Брошу, Мелисса Планте
Описание: Вернувшись в дом своего детства, юная пианистка Альма находит маленьких волчонка и львенка, оставшихся наедине с дикой природой. Альма спасает животных и укрывает их в своем доме. Так героиня обретает новых верных друзей, но однажды их секрет раскрывают. Львенка Мечтателя отправляют в бродячий цирк, а волчонка Моцарта забирают для исследований. Всем троим предстоит проделать сложный путь, чтобы вновь обрести семью.



Страна: Франция, Канада
Студия: Canal+ [fr], Ciné, Galatée Films
Продолжительность: 01:40:40
Перевод: Дублированный - Мосфильм-Мастер



Информация о файле:
Кодек: AVC
Формат: MKV
Качество: BDRip-AVC
Видео: MPEG-4 AVC, 1024x428, 24.000 fps, 2100 kb/s
Аудио RU: AC3, 6 ch, 48 kHz, 448 kbps
Аудио EN: AC3, 6 ch, 48 kHz, 448 kbps
Субтитры: Английские



x264 info: frame I:1575 Avg QP:17.05 size: 78171
x264 info: frame P:38428 Avg QP:20.74 size: 21367
x264 info: frame B:104963 Avg QP:22.16 size: 6110
General
Unique ID : 323824165425938954104441171320249267810 (0xF39E4404535526669FFEFC7E676C3662)
Complete name : D:uTorrentРипы wolf1245Le loup et le lion.2021.DUB.MOSFILMMASTER.BDRip-AVC.[wolf1245.ExKinoRay].mkv
Format : Matroska
Format version : Version 4
File size : 2.11 GiB
Duration : 1 h 40 min
Overall bit rate : 2 997 kb/s
Movie name : Le loup et le lion.2021.DUB.MOSFILMMASTER.BDRip-AVC.[wolf1245.ExKinoRay]
Encoded date : UTC 2022-05-01 06:20:18
Writing application : mkvmerge v67.0.0 ('Under Stars') 64-bit
Writing library : libebml v1.4.2 + libmatroska v1.6.4
Video
ID : 1
Format : AVC
Format/Info : Advanced Video Codec
Format profile : High@L4.1
Format settings : CABAC / 11 Ref Frames
Format settings, CABAC : Yes
Format settings, Reference frames : 11 frames
Codec ID : V_MPEG4/ISO/AVC
Duration : 1 h 40 min
Bit rate : 2 100 kb/s
Width : 1 024 pixels
Height : 428 pixels
Display aspect ratio : 2.40:1
Frame rate mode : Constant
Frame rate : 24.000 FPS
Color space : YUV
Chroma subsampling : 4:2:0
Bit depth : 8 bits
Scan type : Progressive
Bits/(Pixel*Frame) : 0.200
Stream size : 1.48 GiB (70%)
Title : -=[wolf1245.ExKinoRay]=-
Writing library : x264 core 163 r3060 5db6aa6
Encoding settings : cabac=1 / ref=11 / deblock=1:-3:-3 / analyse=0x3:0x133 / me=umh / subme=11 / psy=1 / psy_rd=1.05:0.15 / mixed_ref=1 / me_range=32 / chroma_me=1 / trellis=2 / 8x8dct=1 / cqm=0 / deadzone=22,11 / fast_pskip=1 / chroma_qp_offset=-3 / threads=10 / lookahead_threads=2 / sliced_threads=0 / nr=0 / decimate=0 / interlaced=0 / bluray_compat=0 / constrained_intra=0 / bframes=10 / b_pyramid=2 / b_adapt=2 / b_bias=0 / direct=3 / weightb=1 / open_gop=0 / weightp=2 / keyint=240 / keyint_min=24 / scenecut=40 / intra_refresh=0 / rc_lookahead=60 / rc=2pass / mbtree=0 / bitrate=2100 / ratetol=1.0 / qcomp=0.60 / qpmin=0 / qpmax=69 / qpstep=4 / cplxblur=20.0 / qblur=0.5 / vbv_maxrate=50000 / vbv_bufsize=62500 / nal_hrd=none / filler=0 / ip_ratio=1.40 / pb_ratio=1.30 / aq=1:1.10
Language : English
Default : Yes
Forced : No
Audio #1
ID : 2
Format : AC-3
Format/Info : Audio Coding 3
Commercial name : Dolby Digital
Codec ID : A_AC3
Duration : 1 h 40 min
Bit rate mode : Constant
Bit rate : 448 kb/s
Channel(s) : 6 channels
Channel layout : L R C LFE Ls Rs
Sampling rate : 48.0 kHz
Frame rate : 31.250 FPS (1536 SPF)
Compression mode : Lossy
Stream size : 322 MiB (15%)
Title : DUB | MOSFILM-MASTER | RUS
Language : Russian
Service kind : Complete Main
Default : Yes
Forced : Yes
Audio #2
ID : 3
Format : AC-3
Format/Info : Audio Coding 3
Commercial name : Dolby Digital
Codec ID : A_AC3
Duration : 1 h 40 min
Bit rate mode : Constant
Bit rate : 448 kb/s
Channel(s) : 6 channels
Channel layout : L R C LFE Ls Rs
Sampling rate : 48.0 kHz
Frame rate : 31.250 FPS (1536 SPF)
Compression mode : Lossy
Stream size : 323 MiB (15%)
Title : Original | ENG
Language : English
Service kind : Complete Main
Default : Yes
Forced : No
Text
ID : 4
Format : UTF-8
Codec ID : S_TEXT/UTF8
Codec ID/Info : UTF-8 Plain Text
Duration : 1 h 36 min
Bit rate : 38 b/s
Count of elements : 1036
Stream size : 27.2 KiB (0%)
Language : English
Default : No
Forced : No
Menu
00:00:00.000 : :Глава 01
00:07:33.667 : :Глава 02
00:17:58.333 : :Глава 03
00:25:33.167 : :Глава 04
00:34:09.500 : :Глава 05
00:40:43.292 : :Глава 06
00:48:33.792 : :Глава 07
00:58:22.000 : :Глава 08
01:06:46.875 : :Глава 09
01:13:19.708 : :Глава 10
01:22:14.333 : :Глава 11
01:29:53.958 : :Глава 12
Релиз от:
Автор релиза:
pb.wtf



Скачать Волк и лев через торрент http://i117.fastpic.org/big/2022/0501/be/858944057f781b3c3758756b92593ebe.jpg Скачать, смотреть онлайн Волк и лев бесплантно в хорошем качестве Описание: Вернувшись в дом своего детства, юная пианистка Альма находит маленьких волчонка и львенка, оставшихся наедине с дикой ... 10 10 3
Info! Золотая раздача, скачанное не засчитывается.
Торрент: Зарегистрирован [2022-05-01 06:34] · скачан: 55 раз
Статус: √ проверено
Размер: 2.11 GB
Как cкачать? Как скачать Волк и лев через торрент | UTorrent

28-11-2019 20:33  

Отключить всю рекламу на сайте

    Дорогой пользователь! Огромная просьба, поблагодарите релизера, оцените раздачу и оставьте свои комментарий, если Вы скачали Волк и лев через торрент бесплатно!
    Комментировать посты могут только пользователи прошедшие не сложную регистрацию
    Показать сообщения:    

    Волк и лев через торрент
    Скачать бесплатно Волк и лев
    Волк и лев скачать торрент
    Волк и лев смотреть онлайн
    Cкачать фильм Волк и лев бесплатно
    Волк и лев скачать торрент в хорошем качестве
    Волк и лев смотреть онлайн бесплатно в хорошем качестве


    Вы не можете начинать темы
    Вы не можете отвечать на сообщения
    Вы не можете редактировать свои сообщения
    Вы не можете удалять свои сообщения
    Вы не можете голосовать в опросах
    Вы не можете прикреплять файлы к сообщениям
    Вы можете скачивать файлы