Доктор Стрэндж

Лицензия

Добыча

Дубляж

Уэнсдэй

1 сезон

Тор

Дубляж

В эфире

Дубляж

Там, где раки поют

MVO

Властелин колец

1 сезон

Deluxe

pack

Рекомендуем

30

Пиратка

ВАЖНО

ВАЖНО

Ghostwire

Пиратка

jed

RePack

nioh2

RePack

RDR2

RePack

NEED FOR SPEED™ PAYBACK

RePack

скачать торрент

Кинопоиск HD

Острые козырьки 6 сезон

6 сезон

FAR CRY 6

RePack

скачать торрент

Лицензия

скачать торрент

MVO

1

1 сезон

скачать торрент

1 сезон

скачать торрент

Лицензия

  

Потеряшки и тайна волшебной пирамиды / Trash (Франческо Дафано, Лука Делла Гротта) [2020 г., мультфильм, комедия, приключения, HDRip, Дубляж iTunes]

Потеряшки и тайна волшебной пирамиды через торрент pb.wtf

Размер: 719 MB | Добавлен: 7 мес. назад | Торрент скачан:26 раз
Смотреть онлайн | Скачать   

01-05-2022 17:58 Потеряшки и тайна волшебной пирамиды Скачать торрент  

Потеряшки и тайна волшебной пирамиды / Trash
Год выпуска: 2020
Страна: Италия / AL ONE S.r.l., Al-One Production & Strategy, Direzione Generale per il Cinema
Жанр: мультфильм, комедия, приключения
Продолжительность: 01:28:16
Перевод: Дубляж (iTunes)

Режиссер: Франческо Дафано, Лука Делла Гротта

rating

В ролях: Росси де Пальма, Дэйв Уиллис, Марк Томпсон, Тайлер Банч, Билли Боб Томпсон, Эйб Голдфарб, Мэгги Полити, Эдди Ли, Сэм Хафт, Джастин Ансельми

Описание: Малыш Спарк оказался на свалке — в мире потерянных и ненужных вещей. Но одиночество ему не грозит даже здесь. Довольно быстро он находит друзей по несчастью, с которыми отправляется на поиски Волшебной пирамиды — загадочного места, где брошенные вещи могут снова стать нужными. Во время своих приключений веселая компания поймет, что все в этом мире обладает ценностью: даже то, что для одних просто хлам, для других может стать настоящим сокровищем.

Качество: HDRip
Формат: AVI
Видео кодек: DivX
Аудио кодек: MP3
Видео: 640x272 (2.35:1), 24.000 fps, DivX Codec 4.x ~1000 kbps avg, 0.24 bit/pixel
Аудио: 48 kHz, MPEG Layer 3, 2 ch, ~128.00 kbps avg

Общее
Полное имя : G:\ФИЛЬМЫ\Потеряшки и тайна волшебной пирамиды.2020.D.HDRip.avi
Формат : AVI
Формат/Информация : Audio Video Interleave
Размер файла : 719 Мбайт
Продолжительность : 1 ч. 28 м.
Общий поток : 1 138 Кбит/сек
Программа кодирования : VirtualDubMod 1.5.10.3 | www.virtualdub-fr.org || (build 2550/release)
Библиотека кодирования : VirtualDubMod build 2550/release

Видео
Идентификатор : 0
Формат : MPEG-4 Visual
Профиль формата : Advanced [email protected]
Настройки формата : BVOP2
Параметр BVOP формата : 2
Параметр QPel формата : Нет
Параметр GMC формата : Без точки перехода
Параметр матрицы формата : Default (MPEG)
Идентификатор кодека : DIVX
Идентификатор кодека/Информация : Project Mayo
Идентификатор кодека/Подсказка : DivX 4
Продолжительность : 1 ч. 28 м.
Битрейт : 1 001 Кбит/сек
Ширина : 640 пикселей
Высота : 272 пикселя
Соотношение сторон : 2,35:1
Частота кадров : 24,000 кадра/сек
Цветовое пространство : YUV
Субдискретизация насыщенности : 4:2:0
Битовая глубина : 8 бит
Тип развёртки : Прогрессивная
Метод сжатия : С потерями
Бит/(Пиксели*Кадры) : 0.240
Размер потока : 632 Мбайт (88%)
Библиотека кодирования : XviD 1.2.1 (UTC 2008-12-04)

Аудио
Идентификатор : 1
Формат : MPEG Audio
Версия формата : Version 1
Профиль формата : Layer 3
Настройки формата : Joint stereo / MS Stereo
Идентификатор кодека : 55
Идентификатор кодека/Подсказка : MP3
Продолжительность : 1 ч. 28 м.
Вид битрейта : Постоянный
Битрейт : 128 Кбит/сек
Каналы : 2 канала
Частота : 48,0 КГц
Частота кадров : 41,667 кадра/сек (1152 SPF)
Метод сжатия : С потерями
Размер потока : 80,8 Мбайт (11%)
Выравнивание : Соединение по промежуткам
Продолжительность промежутка : 42 мс. (1,00 видеокадр)
Время предзагрузки промежутка : 504 мс.
Библиотека кодирования : LAME3.99r
Настройки программы : -m j -V 4 -q 2 -lowpass 17 -b 128

ReportBy : MediaInfoLib - v22.03
CreatedOn : UTC 2022-05-01 17:46:05




Скачать Потеряшки и тайна волшебной пирамиды через торрент https://i117.fastpic.org/big/2022/0501/ac/f7dc5eb22dabac29c051fd809cd1abac.jpg Скачать, смотреть онлайн Потеряшки и тайна волшебной пирамиды бесплантно в хорошем качестве Описание: Малыш Спарк оказался на свалке — в мире потерянных и ненужных вещей. Но одиночество ему не грозит даже здесь. Довольно быстро он ... 5 10 1
Торрент: Зарегистрирован [2022-05-01 17:58] · скачан: 26 раз
Статус: √ проверено
Размер: 719 MB
Как cкачать? Как скачать Потеряшки и тайна волшебной пирамиды через торрент | UTorrent

% Раздел Тема Автор DL S | L
Иностранные мультфильмы [ 1.46 GB ] Потеряшки и тайна волшебной пирамиды / Trash | iTunes | HDRip bober100 Скачать
2 | 0
Зарубежные Мультфильмы (BDRip 1080p, 720p, Blu-ray, BD-Remux) [ 3.8 GB ] Потеряшки и тайна волшебной пирамиды / Trash | iTunes | 720p bober100 Скачать
1 | 0
Зарубежные Мультфильмы (BDRip 1080p, 720p, Blu-ray, BD-Remux) [ 7.34 GB ] Потеряшки и тайна волшебной пирамиды / Trash | iTunes | 1080p bober100 Скачать
4 | 0

28-11-2019 20:33  


Отключить вcю реклaмy на сайте, в т.ч. и в плеере онлайн просмотра!

    Дорогой пользователь! Огромная просьба, поблагодарите релизера, оцените раздачу и оставьте свои комментарий, если Вы скачали Потеряшки и тайна волшебной пирамиды через торрент бесплатно!!
    Комментировать посты могут только пользователи прошедшие не сложную регистрацию
    Показать сообщения:    


    Потеряшки и тайна волшебной пирамиды через торрент
    Скачать бесплатно Потеряшки и тайна волшебной пирамиды
    Потеряшки и тайна волшебной пирамиды скачать торрент
    Потеряшки и тайна волшебной пирамиды смотреть онлайн
    Cкачать фильм Потеряшки и тайна волшебной пирамиды бесплатно
    Потеряшки и тайна волшебной пирамиды скачать торрент в хорошем качестве
    Потеряшки и тайна волшебной пирамиды смотреть онлайн бесплатно в хорошем качестве
    Вы не можете начинать темы
    Вы не можете отвечать на сообщения
    Вы не можете редактировать свои сообщения
    Вы не можете удалять свои сообщения
    Вы не можете голосовать в опросах
    Вы не можете прикреплять файлы к сообщениям
    Вы можете скачивать файлы
    Потеряшки и тайна волшебной пирамиды / Trash [2020 г., мультфильм, комедия, приключения, HDRip, Дубляж iTunes] смотреть онлайн, скачать торрент picoco.icu