Всегда рабочее зеркало без VPN и Proxy просто перед .vidak.icu напиши любое слово или цифру, Пример http://sb4v.vidak.icu

MVO

Лицензия

1 сезон

1

1 сезон

iTunes

1 сезон

13

1 сезон

Deluxe

pack

Рекомендуем

Repack

30

ВАЖНО

RePack

MK11

RePack

jed

RePack

fifa19

RePack

RDR2

RePack

NEED FOR SPEED™ PAYBACK

Кинопоиск HD

6 сезон

 Острые козырьки 6 сезон

Все сериалы

все сериалы на PB.wtf

RePack

FAR CRY 5
  
Magnet ссылка

Доктор Стрэндж: В мультивселенной безумия / Doctor Strange in the Multiverse of Madness (Сэм Рэйми) [2022, Фантастика, фэнтези, боевик, приключения, ужасы, WEB-DL 1080p] [IMAX] 3xMVO pb.wtf

Доктор Стрэндж: В мультивселенной безумия через торрент pb.wtf

Раздают: 128 [ 14 MB/s ] Качают: 11 [ 16 MB/s ]
Размер: 8.43 GB | Добавлен: 8 д. назад | Торрент скачан:737 раз
Смотреть онлайн Доктор Стрэндж: В мультивселенной безумия | Скачать    Ребята, помогите собрать деньги на оплату серверов!!!

06-05-2022 19:15 Доктор Стрэндж: В мультивселенной безумия Скачать торрент  

Доктор Стрэндж: В мультивселенной безумия
Doctor Strange in the Multiverse of Madness

Год выпуска: 2022
Страна: США
Студия: Marvel Studios
Жанр: Фантастика, фэнтези, боевик, приключения, ужасы
Продолжительность: 02:06:31
Перевод:
#1: Профессиональный многоголосый | HDRezka Studio
#2: Профессиональный многоголосый | Jaskier
#3: Профессиональный многоголосый | NewComers
Субтитры: Русские (2 x Forced, full), английские

Режиссер: Сэм Рэйми

rating

В ролях: Бенедикт Камбербэтч, Элизабет Олсен, Чиветел Эджиофор, Бенедикт Вонг, Сочил Гомес, Майкл Стулбарг, Рэйчел МакАдамс, Патрик Стюарт, Брюс Кэмпбелл, Джулиан Хиллиард

Описание: Стабильность пространства временного континуума нарушена, и в мультивселенную открыт портал, через который в нашу реальность просачиваются монстры из других миров. Один из них охотится за подростком Америкой Чавез — именно ее Доктор Стрэндж видит в своих загадочных снах каждую ночь. Чтобы помочь девушке, Стрэндж обращается за помощью к Ванде Максимофф. Но недосягаемая мечта застилает ей глаза, превращая Ванду в безжалостую Алую Ведьму.

Качество: WEB-DL 1080p | IMAX
Формат: MKV

Видео: MPEG-4 AVC, 1920x1080, 7488 Kbit/s, 23.976 fps
Аудио #01: 48 kHz, AC3, 5.1, 448 Kbps | Профессиональный многоголосый | HDRezka Studio | RUS |
Аудио #02: 48 kHz, AC3, 5.1, 448 Kbps | Профессиональный многоголосый | Jaskier | RUS |
Аудио #03: 48 kHz, AC3, 5.1, 384 Kbps | Профессиональный многоголосый | NewComers | RUS |
Аудио #04: 48 kHz, E-AC3+Atmos, 5.1, 768 Kbps | Оригинал | ENG |
скриншот  скриншот  скриншот  скриншот  скриншот  скриншот  

General
Unique ID : 251187226867124378452642544380799177456 (0xBCF8E672A964462A2062013E3AC552F0)
Complete name : D:\Video1\Doctor.Strange.in.the.Multiverse.of.Madness.2022.IMAX.WEB-DL.1080p.seleZen.mkv
Format : Matroska
Format version : Version 4
File size : 8.43 GiB
Duration : 2 h 6 min
Overall bit rate mode : Variable
Overall bit rate : 9 538 kb/s
Movie name : Doctor.Strange.in.the.Multiverse.of.Madness.2022.IMAX.seleZen
Encoded date : UTC 2022-06-25 18:34:12
Writing application : mkvmerge v59.0.0 ('Shining Star') 64-bit
Writing library : libebml v1.4.2 + libmatroska v1.6.4

Video
ID : 1
Format : AVC
Format/Info : Advanced Video Codec
Format profile : [email protected]
Format settings : CABAC / 4 Ref Frames
Format settings, CABAC : Yes
Format settings, Reference : 4 frames
Codec ID : V_MPEG4/ISO/AVC
Duration : 2 h 6 min
Bit rate mode : Variable
Bit rate : 7 488 kb/s
Maximum bit rate : 12.7 Mb/s
Width : 1 920 pixels
Height : 1 080 pixels
Display aspect ratio : 16:9
Frame rate mode : Constant
Frame rate : 23.976 (24000/1001) FPS
Color space : YUV
Chroma subsampling : 4:2:0
Bit depth : 8 bits
Scan type : Progressive
Bits/(Pixel*Frame) : 0.151
Stream size : 6.62 GiB (78%)
Language : English
Default : No
Forced : No
Color range : Limited
Color primaries : BT.709
Transfer characteristics : BT.709
Matrix coefficients : BT.709

Audio #1
ID : 2
Format : AC-3
Format/Info : Audio Coding 3
Commercial name : Dolby Digital
Codec ID : A_AC3
Duration : 2 h 6 min
Bit rate mode : Constant
Bit rate : 448 kb/s
Channel(s) : 6 channels
Channel layout : L R C LFE Ls Rs
Sampling rate : 48.0 kHz
Frame rate : 31.250 FPS (1536 SPF)
Compression mode : Lossy
Stream size : 405 MiB (5%)
Title : MVO [HDRezka Studio]
Language : Russian
Service kind : Complete Main
Default : Yes
Forced : Yes

Audio #2
ID : 3
Format : AC-3
Format/Info : Audio Coding 3
Commercial name : Dolby Digital
Codec ID : A_AC3
Duration : 2 h 6 min
Bit rate mode : Constant
Bit rate : 448 kb/s
Channel(s) : 6 channels
Channel layout : L R C LFE Ls Rs
Sampling rate : 48.0 kHz
Frame rate : 31.250 FPS (1536 SPF)
Compression mode : Lossy
Stream size : 405 MiB (5%)
Title : MVO [Jaskier]
Language : Russian
Service kind : Complete Main
Default : No
Forced : No

Audio #3
ID : 4
Format : AC-3
Format/Info : Audio Coding 3
Commercial name : Dolby Digital
Codec ID : A_AC3
Duration : 2 h 6 min
Bit rate mode : Constant
Bit rate : 384 kb/s
Channel(s) : 6 channels
Channel layout : L R C LFE Ls Rs
Sampling rate : 48.0 kHz
Frame rate : 31.250 FPS (1536 SPF)
Compression mode : Lossy
Stream size : 348 MiB (4%)
Title : MVO [NewComers]
Language : Russian
Service kind : Complete Main
Default : No
Forced : No

Audio #4
ID : 5
Format : E-AC-3 JOC
Format/Info : Enhanced AC-3 with Joint Object Coding
Commercial name : Dolby Digital Plus with Dolby Atmos
Codec ID : A_EAC3
Duration : 2 h 6 min
Bit rate mode : Constant
Bit rate : 768 kb/s
Channel(s) : 6 channels
Channel layout : L R C LFE Ls Rs
Sampling rate : 48.0 kHz
Frame rate : 31.250 FPS (1536 SPF)
Compression mode : Lossy
Stream size : 695 MiB (8%)
Title : Original
Language : English
Service kind : Complete Main
Default : No
Forced : No
Complexity index : 16
Number of dynamic objects : 15
Bed channel count : 1 channel
Bed channel configuration : LFE

Text #1
ID : 6
Format : UTF-8
Codec ID : S_TEXT/UTF8
Codec ID/Info : UTF-8 Plain Text
Duration : 2 h 4 min
Bit rate : 1 b/s
Count of elements : 17
Stream size : 1.01 KiB (0%)
Title : Forced [HDRezka Studio]
Language : Russian
Default : Yes
Forced : Yes

Text #2
ID : 7
Format : UTF-8
Codec ID : S_TEXT/UTF8
Codec ID/Info : UTF-8 Plain Text
Duration : 25 min 8 s
Bit rate : 2 b/s
Count of elements : 10
Stream size : 480 Bytes (0%)
Title : Forced v.2
Language : Russian
Default : No
Forced : No

Text #3
ID : 8
Format : UTF-8
Codec ID : S_TEXT/UTF8
Codec ID/Info : UTF-8 Plain Text
Duration : 2 h 5 min
Bit rate : 68 b/s
Count of elements : 1253
Stream size : 62.4 KiB (0%)
Title : Full
Language : Russian
Default : No
Forced : No

Text #4
ID : 9
Format : UTF-8
Codec ID : S_TEXT/UTF8
Codec ID/Info : UTF-8 Plain Text
Duration : 25 min 8 s
Bit rate : 1 b/s
Count of elements : 10
Stream size : 265 Bytes (0%)
Title : Forced
Language : English
Default : No
Forced : No

Text #5
ID : 10
Format : UTF-8
Codec ID : S_TEXT/UTF8
Codec ID/Info : UTF-8 Plain Text
Duration : 2 h 5 min
Bit rate : 37 b/s
Count of elements : 1321
Stream size : 34.4 KiB (0%)
Title : Full
Language : English
Default : No
Forced : No

Text #6
ID : 11
Format : UTF-8
Codec ID : S_TEXT/UTF8
Codec ID/Info : UTF-8 Plain Text
Duration : 2 h 5 min
Bit rate : 50 b/s
Count of elements : 1906
Stream size : 46.5 KiB (0%)
Title : SDH
Language : English
Default : No
Forced : No

Menu
00:00:00.000 : Chapter 01
00:03:51.398 : Chapter 02
00:08:26.506 : Chapter 03
00:14:19.442 : Chapter 04
00:18:23.061 : Chapter 05
00:24:37.602 : Chapter 06
00:37:58.153 : Chapter 07
00:47:15.502 : Chapter 08
00:50:03.545 : Chapter 09
00:55:51.059 : Chapter 10
00:59:46.336 : Chapter 11
01:02:19.656 : Chapter 12
01:05:18.418 : Chapter 13
01:07:20.790 : Chapter 14
01:15:03.586 : Chapter 15
01:17:01.871 : Chapter 16
01:19:18.383 : Chapter 17
01:23:29.342 : Chapter 18
01:26:34.194 : Chapter 19
01:28:51.206 : Chapter 20
01:34:47.270 : Chapter 21
01:37:38.650 : Chapter 22
01:41:27.629 : Chapter 23
01:51:03.288 : Chapter 24
01:53:26.473 : Chapter 25
01:55:38.855 : Chapter 26
01:56:32.075 : Chapter 27
01:58:48.378 : Chapter 28
01:59:25.665 : Chapter 29

pb.wtf



Скачать Доктор Стрэндж: В мультивселенной безумия через торрент https://i120.fastpic.org/big/2022/0625/9e/1d6d96044e30404f906c7401ae6b379e.jpg Скачать, смотреть онлайн Доктор Стрэндж: В мультивселенной безумия бесплантно в хорошем качестве Описание: Стабильность пространства временного континуума нарушена, и в мультивселенную открыт портал, через который в нашу реальность ... 9.1 10 74
Info! Золотая раздача, скачанное не засчитывается.
Торрент: Зарегистрирован [2022-06-25 18:42] · скачан: 737 раз
Статус: √ проверено
Размер: 8.43 GB
Как cкачать? Как скачать Доктор Стрэндж: В мультивселенной безумия через торрент | UTorrent

% Раздел Тема Автор DL S | L
Ultra HD (UHD: 2K, 4K, 8K) — видео сверхвысокой чёткости [ 16.47 GB ] Доктор Стрэндж: В мультивселенной безумия / Doctor Strange in the Multiverse of Madness [2022 UHD WEB-DL-HEVC 2160p] [IMAX] 3xMVO bober100 Скачать
52 | 1


Последний раз редактировалось: bober100 (2022-06-25 18:48), всего редактировалось 6 раз(а)

28-11-2019 20:33  

Отключить всю рекламу на сайте

22-06-2022 11:19 Доктор Стрэндж: В мультивселенной безумия Скачать торрент  

Классно, надо обязательно смотреть, спасибо =)pb.wtf



22-06-2022 15:36 Доктор Стрэндж: В мультивселенной безумия Скачать торрент  

сразу же извиняюсь за вопрос, я не в теме просто
дубляж будет? ведь у нас в кз его в дубляже крутили в кинотеатрах (имею ввиду с голосами тех актеров кто озвучивал героев до всей обстановки на терр.снг)

или щас дубляж это озвучка определенной командой, где уже не пишется слово дубляж а просто название команды которая озвучивалаpb.wtf



22-06-2022 15:44 Доктор Стрэндж: В мультивселенной безумия Скачать торрент  

temirlan-o писал(а):

сразу же извиняюсь за вопрос, я не в теме просто
дубляж будет? ведь у нас в кз его в дубляже крутили в кинотеатрах (имею ввиду с голосами тех актеров кто озвучивал героев до всей обстановки на терр.снг)

или щас дубляж это озвучка определенной командой, где уже не пишется слово дубляж а просто название команды которая озвучивала

скорее всего будет,бетман и фантастические твари же вышлиpb.wtf



23-06-2022 13:38 Доктор Стрэндж: В мультивселенной безумия Скачать торрент  

Убогий перевод от картавых профессионалов ... Ждём дубляжа .pb.wtf



25-06-2022 18:02 Доктор Стрэндж: В мультивселенной безумия Скачать торрент  

а семплы отменили? или они ушли вместе с дубляжом из России?pb.wtf



25-06-2022 19:29 Доктор Стрэндж: В мультивселенной безумия Скачать торрент  

LostFilm видел озвучку, мб SDI media сделает озвучкуpb.wtf



26-06-2022 07:18 Доктор Стрэндж: В мультивселенной безумия Скачать торрент  

samodyff писал(а):

Убогий перевод от картавых профессионалов ... Ждём дубляжа .

у NewComers есть хорошая озвучкаpb.wtf



26-06-2022 08:46 Доктор Стрэндж: В мультивселенной безумия Скачать торрент  

NewComers и правда вполне прилично отработали.
Но сам фильм, конечно, УГpb.wtf



26-06-2022 19:53 Доктор Стрэндж: В мультивселенной безумия Скачать торрент  

ждём дубляж, парни бабосы собирали.и озвучивали, знчт скоро будетpb.wtf



27-06-2022 12:40 Доктор Стрэндж: В мультивселенной безумия Скачать торрент  

редкостная! для детей 10 классаpb.wtf



01-07-2022 21:09 Доктор Стрэндж: В мультивселенной безумия Скачать торрент  

Фильм конечно трындец, словами дедпула "сценарий писан на коленке" перед этим был высосан из пальца. У меня прям когнитивный диссонанс обострился. pb.wtf



    Дорогой пользователь! Огромная просьба, поблагодарите релизера, оцените раздачу и оставьте свои комментарий, если Вы скачали Доктор Стрэндж: В мультивселенной безумия через торрент бесплатно!
    Комментировать посты могут только пользователи прошедшие не сложную регистрацию
    Показать сообщения:    

    Доктор Стрэндж: В мультивселенной безумия через торрент
    Скачать бесплатно Доктор Стрэндж: В мультивселенной безумия
    Доктор Стрэндж: В мультивселенной безумия скачать торрент
    Доктор Стрэндж: В мультивселенной безумия смотреть онлайн
    Cкачать фильм Доктор Стрэндж: В мультивселенной безумия бесплатно
    Доктор Стрэндж: В мультивселенной безумия скачать торрент в хорошем качестве
    Доктор Стрэндж: В мультивселенной безумия смотреть онлайн бесплатно в хорошем качестве


    Вы не можете начинать темы
    Вы не можете отвечать на сообщения
    Вы не можете редактировать свои сообщения
    Вы не можете удалять свои сообщения
    Вы не можете голосовать в опросах
    Вы не можете прикреплять файлы к сообщениям
    Вы можете скачивать файлы