Всегда рабочее зеркало без VPN и Proxy просто перед .vidak.icu напиши любое слово или цифру, Пример http://gg9y.vidak.icu

MVO

Лицензия

1 сезон

1

1 сезон

iTunes

1 сезон

13

1 сезон

Deluxe

pack

Рекомендуем

Пиратка

30

ВАЖНО

RePack

MK11

RePack

jed

RePack

fifa19

RePack

RDR2

RePack

NEED FOR SPEED™ PAYBACK

Кинопоиск HD

6 сезон

 Острые козырьки 6 сезон

Все сериалы

все сериалы на PB.wtf

RePack

FAR CRY 5

Anonymous, нам критически не хватает 2100 руб. на оплату серверов и переферии за МАЙ, помоги нам пожалуйста, вся надежда только на тебя. В благодарность мы отключим тебе всю рекламу на сайте!

×
  
Magnet ссылка

Соник 2 в кино / Sonic the Hedgehog 2 (Джефф Фаулер) [2022, Фантастика, боевик, комедия, приключения, семейный, WEB-DLRip-AVC] MVO [TVShows] pb.wtf

Соник 2 в кино через торрент pb.wtf

Раздают: 20 [ 65 KB/s ] Качают: 1 [ 0 KB/s ]
Размер: 2.38 GB | Добавлен: 1 мес. 18 д. назад | Торрент скачан:404 раза
Смотреть онлайн Соник 2 в кино | Скачать    Ребята, помогите собрать деньги на оплату серверов!!!

07-05-2022 02:12 Соник 2 в кино Скачать торрент  

Соник 2 в кино
Sonic the Hedgehog 2

Год выпуска: 2022
Страна: Япония, США
Выпущено: Paramount Pictures, Sega Sammy Group, Original Film
Жанр: Фантастика, боевик, комедия, приключения, семейный
Продолжительность: 02:02:17
Перевод: Профессиональный (многоголосый) | TVShows
Субтитры: Русские (FOCS), английские

Режиссер: Джефф Фаулер

rating

В ролях: Бен Шварц, Идрис Эльба, Коллин О Шонесси, Джим Керри, Джеймс Марсден, Тика Самптер, Наташа Ротуэлл, Шемар Мур, Адам Палли, Ли Мадждуб

Описание: Поселившись в Грин Хилз, Соник стремится доказать, что у него есть все задатки настоящего героя. И геройское испытание не заставляет себя долго ждать: злодейский доктор Роботник вновь строит козни. На этот раз - с загадочным напарником Наклзом. Вместе они разыскивают бесценный изумруд, в котором заключены силы, способные уничтожать целые цивилизации. Соник объединяется с лисенком Тейлзом, чтобы отправиться в кругосветное путешествие и найти изумруд до того, как он попадет в плохие руки.

Качество: WEB-DLRip-AVC
Формат: MKV

Видео: MPEG-4 AVC, 1024x428 at 23.976 fps, x264@L4.1, ~2334 kbps
Аудио 1: AC3, 2 ch, ~192 kbps - | Русский |
Аудио 2: E-AC3, 6 ch, ~256 kbps - | Английский |
скриншот  скриншот  скриншот  скриншот  

General
Unique ID : 99834737491381572619489039078393243042 (0x4B1B78963D3FBA09BE3A70966635E5A2)
Complete name : L:Sonic.the.Hedgehog.2.2022.WEB-DLRip.x264.mkv
Format : Matroska
Format version : Version 4
File size : 2.38 GiB
Duration : 2 h 2 min
Overall bit rate : 2 784 kb/s
Encoded date : UTC 2022-05-06 20:16:18
Writing application : mkvmerge v63.0.0 ('Everything') 64-bit
Writing library : libebml v1.4.2 + libmatroska v1.6.4
Cover : Yes
Attachments : cover.jpg / cover 2.jpg

Video
ID : 1
Format : AVC
Format/Info : Advanced Video Codec
Format profile : High@L4.1
Format settings : CABAC / 10 Ref Frames
Format settings, CABAC : Yes
Format settings, Reference : 10 frames
Codec ID : V_MPEG4/ISO/AVC
Duration : 2 h 2 min
Bit rate : 2 334 kb/s
Width : 1 024 pixels
Height : 428 pixels
Display aspect ratio : 2.40:1
Frame rate mode : Constant
Frame rate : 23.976 (24000/1001) FPS
Color space : YUV
Chroma subsampling : 4:2:0
Bit depth : 8 bits
Scan type : Progressive
Bits/(Pixel*Frame) : 0.222
Stream size : 1.99 GiB (84%)
Title : -=DoMiNo=-
Writing library : x264 core 164 r3094 bfc87b7
Encoding settings : cabac=1 / ref=10 / deblock=1:-2:-2 / analyse=0x3:0x133 / me=umh / subme=10 / psy=1 / psy_rd=1.07:0.20 / mixed_ref=1 / me_range=32 / chroma_me=1 / trellis=2 / 8x8dct=1 / cqm=0 / deadzone=21,11 / fast_pskip=0 / chroma_qp_offset=-3 / threads=17 / lookahead_threads=3 / sliced_threads=0 / nr=0 / decimate=0 / interlaced=0 / bluray_compat=0 / constrained_intra=0 / bframes=10 / b_pyramid=2 / b_adapt=2 / b_bias=0 / direct=3 / weightb=1 / open_gop=0 / weightp=2 / keyint=250 / keyint_min=23 / scenecut=40 / intra_refresh=0 / rc_lookahead=60 / rc=crf / mbtree=0 / crf=18.0 / qcomp=0.60 / qpmin=0 / qpmax=69 / qpstep=4 / vbv_maxrate=50000 / vbv_bufsize=62500 / crf_max=0.0 / nal_hrd=none / filler=0 / ip_ratio=1.35 / pb_ratio=1.25 / aq=2:1.00
Language : English
Default : Yes
Forced : No
Color range : Limited
Color primaries : BT.709
Transfer characteristics : BT.709
Matrix coefficients : BT.709

Audio #1
ID : 2
Format : AC-3
Format/Info : Audio Coding 3
Commercial name : Dolby Digital
Codec ID : A_AC3
Duration : 2 h 2 min
Bit rate mode : Constant
Bit rate : 192 kb/s
Channel(s) : 2 channels
Channel layout : L R
Sampling rate : 48.0 kHz
Frame rate : 31.250 FPS (1536 SPF)
Compression mode : Lossy
Stream size : 168 MiB (7%)
Title : MVO TVShows
Language : Russian
Service kind : Complete Main
Default : Yes
Forced : No

Audio #2
ID : 3
Format : E-AC-3
Format/Info : Enhanced AC-3
Commercial name : Dolby Digital Plus
Codec ID : A_EAC3
Duration : 2 h 2 min
Bit rate mode : Constant
Bit rate : 256 kb/s
Channel(s) : 6 channels
Channel layout : L R C LFE Ls Rs
Sampling rate : 48.0 kHz
Frame rate : 31.250 FPS (1536 SPF)
Compression mode : Lossy
Stream size : 224 MiB (9%)
Language : English
Service kind : Complete Main
Default : No
Forced : No

Text #1
ID : 4
Format : UTF-8
Codec ID : S_TEXT/UTF8
Codec ID/Info : UTF-8 Plain Text
Duration : 1 h 53 min
Bit rate : 91 b/s
Count of elements : 1714
Stream size : 75.5 KiB (0%)
Language : Russian
Default : No
Forced : No

Text #2
ID : 5
Format : UTF-8
Codec ID : S_TEXT/UTF8
Codec ID/Info : UTF-8 Plain Text
Duration : 1 h 52 min
Bit rate : 54 b/s
Count of elements : 1375
Stream size : 44.5 KiB (0%)
Language : English
Default : No
Forced : No

Menu
00:00:00.000 : :Глава 01
00:12:30.000 : :Глава 02
00:25:00.000 : :Глава 03
00:37:30.000 : :Глава 04
00:50:00.000 : :Глава 05
01:02:30.000 : :Глава 06
01:15:00.000 : :Глава 07
01:27:30.000 : :Глава 08
01:40:00.000 : :Глава 09
01:52:30.000 : :Глава 10

pb.wtf



Скачать Соник 2 в кино через торрент https://i.postimg.cc/DZTRwfMX/700.jpg Скачать, смотреть онлайн Соник 2 в кино бесплантно в хорошем качестве Описание: Поселившись в Грин Хилз, Соник стремится доказать, что у него есть все задатки настоящего героя. И геройское испытание не ... 9.8 10 13
Info! Золотая раздача, скачанное не засчитывается.
Торрент: Зарегистрирован [2022-05-07 02:12] · скачан: 404 раз
Статус: √ проверено
Размер: 2.38 GB
Как cкачать? Как скачать Соник 2 в кино через торрент | UTorrent

% Раздел Тема Автор DL S | L
Ultra HD (UHD: 2K, 4K, 8K) — видео сверхвысокой чёткости [ 13.73 GB ] Соник 2 в кино / Sonic the Hedgehog 2 [2022 UHD WEB-DL-HEVC 2160p] DUB [SDI Media / IYUNO SDI Group] +3xMVO bober100 Скачать
8 | 6
Фильмы 2021 [DVDrip, WEB-DLRip, HDrip] (DUB, MVO) [ 2.18 GB ] Соник 2 в кино / Sonic the Hedgehog 2 [2022 WEB-DLRip] DUB [SDI Media / IYUNO SDI Group] bober100 Скачать
5 | 0
Фильмы 2021 [DVDrip, WEB-DLRip, HDrip] (DUB, MVO) [ 1.46 GB ] Соник 2 в кино / Sonic the Hedgehog 2 [2022 WEB-DLRip] DUB [SDI Media / IYUNO SDI Group] bober100 Скачать
10 | 1
T Фильмы 2022 [DVDrip, WEB-DLRip, HDrip] (DUB, MVO) [ 1.9 GB ] Соник 2 в кино / Sonic the Hedgehog 2 [2022 мультфильм WEB-DLRip-AVC] MVO [TVShows] от ExKinoRay Lithuania Скачать
21 | 0
Фильмы (HD 720p, 1080p) (48-60 fps) [ 4.17 GB ] Соник 2 в кино / Sonic the Hedgehog 2 [2022 мультфильм WEB-DLRip 720p / 60 FPS ] от R.G. HD-Films slaventi-69 Скачать
21 | 0
Фильмы (WEB-DL 720p, 1080p) [ 7.22 GB ] Соник 2 в кино / Sonic the Hedgehog 2 [2022 WEB-DL 1080p] MVO [TVShows] bober100 Скачать
329 | 5
Фильмы (WEB-DL 720p, 1080p) [ 8.84 GB ] Соник 2 в кино / Sonic the Hedgehog 2 [2022 WEB-DL 1080p] DUB [SDI Media / IYUNO SDI Group] +3xMVO bober100 Скачать
24 | 6

28-11-2019 20:33  

Отключить всю рекламу на сайте

    Дорогой пользователь! Огромная просьба, поблагодарите релизера, оцените раздачу и оставьте свои комментарий, если Вы скачали Соник 2 в кино через торрент бесплатно!
    Комментировать посты могут только пользователи прошедшие не сложную регистрацию
    Показать сообщения:    

    Соник 2 в кино через торрент
    Скачать бесплатно Соник 2 в кино
    Соник 2 в кино скачать торрент
    Соник 2 в кино смотреть онлайн
    Cкачать фильм Соник 2 в кино бесплатно
    Соник 2 в кино скачать торрент в хорошем качестве
    Соник 2 в кино смотреть онлайн бесплатно в хорошем качестве


    Вы можете начинать темы
    Вы можете отвечать на сообщения
    Вы не можете редактировать свои сообщения
    Вы не можете удалять свои сообщения
    Вы не можете голосовать в опросах
    Вы не можете прикреплять файлы к сообщениям
    Вы можете скачивать файлы