Всегда рабочее зеркало без VPN и Proxy просто перед .vidak.icu напиши любое слово или цифру, Пример http://zx2k.vidak.icu

MVO

Лицензия

1 сезон

1

1 сезон

iTunes

1 сезон

13

1 сезон

Deluxe

pack

Рекомендуем

Repack

30

ВАЖНО

RePack

MK11

RePack

jed

RePack

fifa19

RePack

RDR2

RePack

NEED FOR SPEED™ PAYBACK

Кинопоиск HD

6 сезон

 Острые козырьки 6 сезон

Все сериалы

все сериалы на PB.wtf

RePack

FAR CRY 5
  
Magnet ссылка

Имплант / Implanted (Фабьен Дюфиль) [2021 г.,фантастика, триллер , WEB-DLRip, Дубляж "iTunes"] pb.wtf

Имплант через торрент pb.wtf

Размер: 722 MB | Добавлен: 1 мес. 30 д. назад | Торрент скачан:21 раз
Смотреть онлайн Имплант | Скачать    Ребята, помогите собрать деньги на оплату серверов!!!

07-05-2022 17:24 Имплант Скачать торрент  

Имплант / Implanted
Год выпуска: 2021
Страна: США / Headache Films, Implanted Films, Mad Street Motion Pictures
Жанр: фантастика, триллер
Продолжительность: 01:36:44
Перевод: Дубляж (iTunes)
«У каждого есть своя цена, какая у тебя?»

Режиссер: Фабьен Дюфиль

rating

В ролях: Мишель Джиролами, Надер Буссандель, Скотт Бротон, Дэвид Доттерер, Мартин Эвенс, Ширли Хуан, Бари Химэн, Санни Колл, Джон Лонг, Кендес МакАдамс

Описание: Сара, молодая девушка, испытывающая жизненные финансовые трудности, соглашается на эксперимент по вживлению в своё тело искусственного интеллекта по имени Лекс. После этой операции компьютерный разум начинает выходить из-под контроля, заставляя Сару совершать страшные преступления. Девушке предстоит настоящая борьба за выживание и противостояние со своей новой, роботизированной личностью.

Качество: WEB-DLRip
Формат: AVI
Видео кодек: DivX
Аудио кодек: MP3
Видео: 656x272 (2.41:1), 23.976 fps, DivX Codec 4.x ~905 kbps avg, 0.21 bit/pixel
Аудио: 48 kHz, MPEG Layer 3, 2 ch, ~128.00 kbps avg

Общее
Полное имя : G:\ФИЛЬМЫ\Имплант.2021.D.WEB-DLRip.avi
Формат : AVI
Формат/Информация : Audio Video Interleave
Размер файла : 722 Мбайт
Продолжительность : 1 ч. 36 м.
Общий поток : 1 043 Кбит/сек
Программа кодирования : VirtualDubMod 1.5.10.3 | www.virtualdub-fr.org || (build 2550/release)
Библиотека кодирования : VirtualDubMod build 2550/release

Видео
Идентификатор : 0
Формат : MPEG-4 Visual
Профиль формата : Advanced [email protected]
Настройки формата : BVOP2
Параметр BVOP формата : 2
Параметр QPel формата : Нет
Параметр GMC формата : Без точки перехода
Параметр матрицы формата : Default (MPEG)
Идентификатор кодека : DIVX
Идентификатор кодека/Информация : Project Mayo
Идентификатор кодека/Подсказка : DivX 4
Продолжительность : 1 ч. 36 м.
Битрейт : 906 Кбит/сек
Ширина : 656 пикселей
Высота : 272 пикселя
Соотношение сторон : 2,40:1
Частота кадров : 23,976 (24000/1001) кадра/сек
Цветовое пространство : YUV
Субдискретизация насыщенности : 4:2:0
Битовая глубина : 8 бит
Тип развёртки : Прогрессивная
Метод сжатия : С потерями
Бит/(Пиксели*Кадры) : 0.212
Размер потока : 627 Мбайт (87%)
Библиотека кодирования : XviD 1.2.1 (UTC 2008-12-04)

Аудио
Идентификатор : 1
Формат : MPEG Audio
Версия формата : Version 1
Профиль формата : Layer 3
Настройки формата : Joint stereo / MS Stereo
Идентификатор кодека : 55
Идентификатор кодека/Подсказка : MP3
Продолжительность : 1 ч. 36 м.
Вид битрейта : Постоянный
Битрейт : 128 Кбит/сек
Каналы : 2 канала
Частота : 48,0 КГц
Частота кадров : 41,667 кадра/сек (1152 SPF)
Метод сжатия : С потерями
Размер потока : 88,6 Мбайт (12%)
Выравнивание : Соединение по промежуткам
Продолжительность промежутка : 42 мс. (1,00 видеокадр)
Время предзагрузки промежутка : 504 мс.
Библиотека кодирования : LAME3.99r
Настройки программы : -m j -V 4 -q 2 -lowpass 17 -b 128

ReportBy : MediaInfoLib - v22.03
CreatedOn : UTC 2022-05-07 17:11:50

pb.wtf



Скачать Имплант через торрент https://i117.fastpic.org/big/2022/0507/da/8013cbd9ce679849d8556eeefd7533da.jpg Скачать, смотреть онлайн Имплант бесплантно в хорошем качестве Описание: Сара, молодая девушка, испытывающая жизненные финансовые трудности, соглашается на эксперимент по вживлению в своё тело ... 10 10 1
Торрент: Зарегистрирован [2022-05-07 17:24] · скачан: 21 раз
Статус: √ проверено
Размер: 722 MB
Как cкачать? Как скачать Имплант через торрент | UTorrent

% Раздел Тема Автор DL S | L
Фильмы 2021 [DVDrip, WEB-DLRip, HDrip] (DUB, MVO) [ 1.79 GB ] Имплант / Implanted [2021 WEB-DLRip-AVC] от ExKinoRay Lithuania Скачать
5 | 0
Фильмы 2021 [DVDrip, WEB-DLRip, HDrip] (DUB, MVO) [ 1.37 GB ] Имплант / Implanted [2021 WEB-DLRip] bober100 Скачать
4 | 0
Фильмы (WEB-DL 720p, 1080p) [ 7.41 GB ] Имплант / Implanted [2021 WEB-DL 1080p] -=BIGBOSS=- Скачать
6 | 0
Фильмы (WEB-DL 720p, 1080p) [ 5.71 GB ] Имплант / Implanted [2021 WEB-DL 720p] bober100 Скачать
2 | 0
T Фильмы 2013 (Звук TS, Cam, VO, DVO) [ 1.45 GB ] Имплант / Implanted [2013 HDRip Любительский двухголосый] coc900 Скачать
1 | 0

28-11-2019 20:33  

Отключить всю рекламу на сайте

07-05-2022 18:24 Имплант Скачать торрент  

Фантастика глазами полного идиота , как интересно на это дают деньги продюссеры?pb.wtf



    Дорогой пользователь! Огромная просьба, поблагодарите релизера, оцените раздачу и оставьте свои комментарий, если Вы скачали Имплант через торрент бесплатно!
    Комментировать посты могут только пользователи прошедшие не сложную регистрацию
    Показать сообщения:    

    Имплант через торрент
    Скачать бесплатно Имплант
    Имплант скачать торрент
    Имплант смотреть онлайн
    Cкачать фильм Имплант бесплатно
    Имплант скачать торрент в хорошем качестве
    Имплант смотреть онлайн бесплатно в хорошем качестве


    Вы не можете начинать темы
    Вы не можете отвечать на сообщения
    Вы не можете редактировать свои сообщения
    Вы не можете удалять свои сообщения
    Вы не можете голосовать в опросах
    Вы не можете прикреплять файлы к сообщениям
    Вы можете скачивать файлы