Всегда рабочее зеркало без VPN и Proxy просто перед .vidak.icu напиши любое слово или цифру, Пример http://5n70.vidak.icu

MVO

Лицензия

1 сезон

1

1 сезон

iTunes

1 сезон

13

1 сезон

Deluxe

pack

Рекомендуем

Пиратка

30

ВАЖНО

RePack

MK11

RePack

jed

RePack

fifa19

RePack

RDR2

RePack

NEED FOR SPEED™ PAYBACK

Кинопоиск HD

6 сезон

 Острые козырьки 6 сезон

Все сериалы

все сериалы на PB.wtf

RePack

FAR CRY 5
  
Magnet ссылка

Босх: Наследие / Bosch: Legacy / Сезон: 1 / Серии: 1-10 из 10 (Патрик Кейди, Алекс Закржевский, Хагар Бен-Ашер) [2022, Детектив, триллер, криминал, боевик, WEB-DL 1080p] MVO [HDrezka Studio] pb.wtf

Босх: Наследие через торрент pb.wtf

Раздают: 2 [ 12 KB/s ]
Размер: 29.02 GB | Добавлен: 1 мес. 2 д. назад | Торрент скачан:20 раз
Смотреть онлайн Босх: Наследие | Скачать    Ребята, помогите собрать деньги на оплату серверов!!!

10-05-2022 05:41 Босх: Наследие Скачать торрент  

Босх: Наследие | Bosch: Legacy
«***»
Год выпуска: 2022
Страна: США
Выпущено: Amazon Studios, Fabel Entertainment
Жанр: Детектив, триллер, криминал, боевик
Продолжительность: ~ 00:45:00 серия
Перевод: Профессиональный (многоголосый) | HDrezka Studio
Субтитры: Русские (Forc |HDrezka Studio|), английские (Full)

Режиссер: Патрик Кейди, Алекс Закржевский, Хагар Бен-Ашер

rating

В ролях: Титус Уэлливер (Titus Welliver), Мэдисон Линтц (Madison Lintz), Мими Роджерс (Mimi Rogers), Стивен А. Чанг (Stephen A. Chang), Денис Дж. Санчес (Denise G. Sanchez), Дэвид Моусес (David Moses), Фил Моррис (Phil Morris), Стивен Флинн (Steven Flynn), Алекс Лойназ (Alex Loynaz), Майкл Эдвард Роуз (Michael Edward Rose), Эндрю Борба (Andrew Borba), Кейт Бёртон (Kate Burton)

Описание: И вновь Титус Уэлливер в роли Гарри Босха, детектива по расследованию убийств на пенсии, ставшего теперь частным детективом и открывающего следующую главу своей карьеры. Адвокат Хани изо всех сил пытается сохранить свою веру в систему правосудия после покушения на убийство, а Мэдди Босх открывает для себя возможности и трудности работы патрульным на улицах Лос-Анджелеса. Гарри Босх, который может и сдал свой значок, но не потерял веры в справедливость. Босх теперь частный сыщик, несколько неохотно объединяющий усилия с влиятельным адвокатом и бывшим заклятым врагом Хани Чендлер, чтобы поймать преступника, который безуспешно замышлял убить Хани и дочь Босха, Мэдди. Одним словом, Гарри вместе с адвокатом Хани и дочерью, вступившей в ряды полиции, вновь расследует запутанные преступления...

Качество: WEB-DL 1080p
Формат: MKV

Видео: AVC, 1920 x 1080 (1.778), 23.976 fps, ~7 238 kbps
Аудио Rus: AC-3, 48 kHz, 6 ch, 448 kbps |HDrezka Studio|
Аудио Eng: E-AC-3, 48 kHz, 6 ch, 640 kbps |Original|
скриншот  скриншот  скриншот  скриншот  

Общее
Уникальный идентификатор : 100092073238908401111331883028248183102 (0x4B4D083802D6C28E05A845CD5EB2C13E)
Полное имя : E:\_Сериалы\_Сериалы\Босх\Bosch.Legacy.S01.WEBDL.1080p.Rus.Eng\Bosch.Legacy.S01E01.WEBDL.1080p.RGzsRutracker.mkv
Формат : Matroska
Версия формата : Version 4
Размер файла : 3,19 Гбайт
Продолжительность : 54 м. 49 с.
Общий поток : 8 329 Кбит/сек
Дата кодирования : UTC 2022-05-09 12:37:02
Программа кодирования : mkvmerge v67.0.0 ('Under Stars') 64-bit
Библиотека кодирования : libebml v1.4.2 + libmatroska v1.6.4

Видео
Идентификатор : 1
Формат : AVC
Формат/Информация : Advanced Video Codec
Профиль формата : High@L4
Настройки формата : CABAC / 4 Ref Frames
Параметр CABAC формата : Да
Параметр RefFrames формата : 4 кадра
Идентификатор кодека : V_MPEG4/ISO/AVC
Продолжительность : 54 м. 49 с.
Вид битрейта : Постоянный
Битрейт : 7 238 Кбит/сек
Номинальный битрейт : 10 000 Кбит/сек
Ширина : 1 920 пикселей
Высота : 1 080 пикселей
Соотношение сторон : 16:9
Режим частоты кадров : Постоянный
Частота кадров : 23,976 (24000/1001) кадра/сек
Цветовое пространство : YUV
Субдискретизация насыщенности : 4:2:0
Битовая глубина : 8 бит
Тип развёртки : Прогрессивная
Бит/(Пиксели*Кадры) : 0.146
Размер потока : 2,77 Гбайт (87%)
Язык : English
Default : Да
Forced : Нет
Цветовой диапазон : Limited
Основные цвета : BT.709
Характеристики трансфера : BT.709
Коэффициенты матрицы : BT.709

Аудио #1
Идентификатор : 2
Формат : AC-3
Формат/Информация : Audio Coding 3
Коммерческое название : Dolby Digital
Идентификатор кодека : A_AC3
Продолжительность : 54 м. 49 с.
Вид битрейта : Постоянный
Битрейт : 448 Кбит/сек
Каналы : 6 каналов
Channel layout : L R C LFE Ls Rs
Частота : 48,0 КГц
Частота кадров : 31,250 кадров/сек (1536 SPF)
Метод сжатия : С потерями
Размер потока : 176 Мбайт (5%)
Заголовок : HDr
Язык : Russian
Service kind : Complete Main
Default : Да
Forced : Нет

Аудио #2
Идентификатор : 3
Формат : E-AC-3
Формат/Информация : Enhanced AC-3
Коммерческое название : Dolby Digital Plus
Идентификатор кодека : A_EAC3
Продолжительность : 54 м. 49 с.
Вид битрейта : Постоянный
Битрейт : 640 Кбит/сек
Каналы : 6 каналов
Channel layout : L R C LFE Ls Rs
Частота : 48,0 КГц
Частота кадров : 31,250 кадров/сек (1536 SPF)
Метод сжатия : С потерями
Размер потока : 251 Мбайт (8%)
Заголовок : Eng
Язык : English
Service kind : Complete Main
Default : Нет
Forced : Нет

Текст #1
Идентификатор : 4
Формат : UTF-8
Идентификатор кодека : S_TEXT/UTF8
Идентификатор кодека/Информация : UTF-8 Plain Text
Продолжительность : 35 м. 36 с.
Битрейт : 2 бит/сек
Count of elements : 10
Размер потока : 652 байт (0%)
Заголовок : Forc
Язык : Russian
Default : Да
Forced : Нет

Текст #2
Идентификатор : 5
Формат : UTF-8
Идентификатор кодека : S_TEXT/UTF8
Идентификатор кодека/Информация : UTF-8 Plain Text
Продолжительность : 52 м. 22 с.
Битрейт : 73 бит/сек
Count of elements : 852
Размер потока : 28,2 Кбайт (0%)
Заголовок : Eng
Язык : English
Default : Нет
Forced : Нет

Текст #3
Идентификатор : 6
Формат : UTF-8
Идентификатор кодека : S_TEXT/UTF8
Идентификатор кодека/Информация : UTF-8 Plain Text
Продолжительность : 52 м. 31 с.
Битрейт : 79 бит/сек
Count of elements : 946
Размер потока : 30,6 Кбайт (0%)
Заголовок : SDH
Язык : English
Default : Нет
Forced : Нет

Внимание! Раздача ведётся путём добавления новых серий; при каждом добавлении создаётся новый торрент.
Чтобы начать докачку новой серии, пользователям необходимо сделать следующее:
1. Остановить скачивание;
2. Удалить старый торрент у себя из клиента (старые серии удалять не надо);
3. Скачать новый торрент и запустить его у себя в клиенте вместо старого, при этом указать клиенту путь в старую папку куда и должно происходить скачивание новых серий. Ваш клиент при этом должен произвести хеширование (проверку) старой папки и будет докачивать только те серии, которых у вас ещё нет. Старые серии при этом не удаляются, а продолжают раздаваться! Eсли вы уже удалили старые серии, то предотвратить повторную закачку старых серий можно, отжав галочку в соответствующих местах при запуске нового торрента.

pb.wtf



Скачать Босх: Наследие через торрент https://i7.imageban.ru/out/2022/05/09/1e7e7d9b11d1dcfdda2b5c6fe106b91f.png Скачать, смотреть онлайн Босх: Наследие бесплантно в хорошем качестве Описание: И вновь Титус Уэлливер в роли Гарри Босха, детектива по расследованию убийств на пенсии, ставшего теперь частным детективом и ... 10 10 2
Info! Золотая раздача, скачанное не засчитывается.
Торрент: Зарегистрирован [2022-05-31 15:14] · скачан: 20 раз
Статус: √ проверено
Размер: 29.02 GB
Как cкачать? Как скачать Босх: Наследие через торрент | UTorrent

% Раздел Тема Автор DL S | L
Зарубежные сериалы [ 12.43 GB ] Босх: Наследие / Bosch: Legacy / Сезон: 1 / Серии: 1-10 из 10 [2022 WEB-DL 720p] MVO [Jaskier] bober100 Скачать
3 | 0
Зарубежные сериалы [ 13.48 GB ] Босх: Наследие / Bosch: Legacy / Сезон: 1 / Серии: 1-10 из 10 [2022 WEB-DL 720p] [MVO] killermax2013 Скачать
3 | 0

28-11-2019 20:33  

Отключить всю рекламу на сайте

    Дорогой пользователь! Огромная просьба, поблагодарите релизера, оцените раздачу и оставьте свои комментарий, если Вы скачали Босх: Наследие через торрент бесплатно!
    Комментировать посты могут только пользователи прошедшие не сложную регистрацию
    Показать сообщения:    

    Босх: Наследие через торрент
    Скачать бесплатно Босх: Наследие
    Босх: Наследие скачать торрент
    Босх: Наследие смотреть онлайн
    Cкачать фильм Босх: Наследие бесплатно
    Босх: Наследие скачать торрент в хорошем качестве
    Босх: Наследие смотреть онлайн бесплатно в хорошем качестве


    Вы не можете начинать темы
    Вы не можете отвечать на сообщения
    Вы не можете редактировать свои сообщения
    Вы не можете удалять свои сообщения
    Вы не можете голосовать в опросах
    Вы не можете прикреплять файлы к сообщениям
    Вы можете скачивать файлы