Всегда рабочее зеркало без VPN и Proxy просто перед .vidak.icu напиши любое слово или цифру, Пример http://gngf.vidak.icu

MVO

Лицензия

1 сезон

1

1 сезон

iTunes

1 сезон

13

1 сезон

Deluxe

pack

Рекомендуем

Пиратка

30

ВАЖНО

RePack

MK11

RePack

jed

RePack

fifa19

RePack

RDR2

RePack

NEED FOR SPEED™ PAYBACK

Кинопоиск HD

6 сезон

 Острые козырьки 6 сезон

Все сериалы

все сериалы на PB.wtf

RePack

FAR CRY 5
  
Magnet ссылка

Тюрьма суперзлодеев / Corrective Measures (Шон Патрик О’Рейли) [2022 г., фантастика, боевик, триллер, WEB-DLRip, Дубляж "iTunes"] pb.wtf

Тюрьма суперзлодеев через торрент pb.wtf

Раздают: 2 [ 0 KB/s ]
Размер: 718 MB | Добавлен: 1 мес. 22 д. назад | Торрент скачан:67 раз
Смотреть онлайн Тюрьма суперзлодеев | Скачать    Ребята, помогите собрать деньги на оплату серверов!!!

11-05-2022 17:50 Тюрьма суперзлодеев Скачать торрент  

Тюрьма суперзлодеев / Corrective Measures
Год выпуска: 2022
Страна: США / Arcana Productions, Arcana Studio, The Exchange
Жанр: фантастика, боевик, триллер
Продолжительность: 01:46:56
Перевод: Дубляж (iTunes)

Режиссер: Шон Патрик О’Рейли

rating


В ролях: Майкл Рукер, Брюс Уиллис, Томас Кавана, Кевин Зегерс, Дэн Пэйн, Бреннан Мейя, Селия Алома, Хейли Сэйлс, Катрина Мёльман, Мэтт Андерсон

Описание: Они — худшие из худших. Их девиз: с великой силой приходит великая безответственность. Они суперзлодеи, обладающие нечеловеческими сверхспособностями. И на свете есть лишь одно место, способное их сдержать. Именно здесь, в тюрьме будущего, пересекаются пути преступного гения-телепата, жестокого мстителя, коррумпированного надзирателя и многих других. Кто-то из них затеял опасную игру, и каждому — будь то заключенный или охранник — в ней отведена особая роль.

Качество: WEB-DLRip
Формат: AVI
Видео кодек: DivX
Аудио кодек: MP3
Видео: 640x272 (2.35:1), 23.976 fps, DivX Codec 4.x ~801 kbps avg, 0.19 bit/pixel
Аудио: 48 kHz, MPEG Layer 3, 2 ch, ~128.00 kbps avg

Общее
Полное имя : G:\ФИЛЬМЫ\Тюрьма суперзлодеев.2022.D.WEB-DLRip.avi
Формат : AVI
Формат/Информация : Audio Video Interleave
Размер файла : 718 Мбайт
Продолжительность : 1 ч. 46 м.
Общий поток : 939 Кбит/сек
Программа кодирования : VirtualDubMod 1.5.10.3 | www.virtualdub-fr.org || (build 2550/release)
Библиотека кодирования : VirtualDubMod build 2550/release

Видео
Идентификатор : 0
Формат : MPEG-4 Visual
Профиль формата : Advanced Simple@L5
Настройки формата : BVOP2
Параметр BVOP формата : 2
Параметр QPel формата : Нет
Параметр GMC формата : Без точки перехода
Параметр матрицы формата : Default (MPEG)
Идентификатор кодека : DIVX
Идентификатор кодека/Информация : Project Mayo
Идентификатор кодека/Подсказка : DivX 4
Продолжительность : 1 ч. 46 м.
Битрейт : 802 Кбит/сек
Ширина : 640 пикселей
Высота : 272 пикселя
Соотношение сторон : 2,35:1
Частота кадров : 23,976 (24000/1001) кадра/сек
Цветовое пространство : YUV
Субдискретизация насыщенности : 4:2:0
Битовая глубина : 8 бит
Тип развёртки : Прогрессивная
Метод сжатия : С потерями
Бит/(Пиксели*Кадры) : 0.192
Размер потока : 613 Мбайт (85%)
Библиотека кодирования : XviD 1.2.1 (UTC 2008-12-04)

Аудио
Идентификатор : 1
Формат : MPEG Audio
Версия формата : Version 1
Профиль формата : Layer 3
Настройки формата : Joint stereo
Идентификатор кодека : 55
Идентификатор кодека/Подсказка : MP3
Продолжительность : 1 ч. 46 м.
Вид битрейта : Постоянный
Битрейт : 128 Кбит/сек
Каналы : 2 канала
Частота : 48,0 КГц
Частота кадров : 41,667 кадра/сек (1152 SPF)
Метод сжатия : С потерями
Размер потока : 97,9 Мбайт (14%)
Выравнивание : Соединение по промежуткам
Продолжительность промежутка : 42 мс. (1,00 видеокадр)
Время предзагрузки промежутка : 504 мс.
Библиотека кодирования : LAME3.99r
Настройки программы : -m j -V 4 -q 2 -lowpass 17 -b 128

ReportBy : MediaInfoLib - v22.03
CreatedOn : UTC 2022-05-11 17:33:42

pb.wtf



Скачать Тюрьма суперзлодеев через торрент https://i117.fastpic.org/big/2022/0511/ad/0dca087bcee9da75540106010ece97ad.png Скачать, смотреть онлайн Тюрьма суперзлодеев бесплантно в хорошем качестве Описание: Они — худшие из худших. Их девиз: с великой силой приходит великая безответственность. Они суперзлодеи, обладающие ... 5.5 10 2
Торрент: Зарегистрирован [2022-05-11 17:50] · скачан: 67 раз
Статус: √ проверено
Размер: 718 MB
Как cкачать? Как скачать Тюрьма суперзлодеев через торрент | UTorrent

% Раздел Тема Автор DL S | L
Фильмы 2022 [DVDrip, WEB-DLRip, HDrip] (DUB, MVO) [ 1.81 GB ] Тюрьма суперзлодеев / Корректирующие меры / Corrective Measures [2022 WEB-DLRip-AVC] DUB [Lucky Production] от ExKinoRay Lithuania Скачать
10 | 0
Фильмы (WEB-DL 720p, 1080p) [ 5.06 GB ] Тюрьма суперзлодеев / Corrective Measures [2022 WEB-DL 1080p] DUB [Lucky Production] -=BIGBOSS=- Скачать
9 | 0
Фильмы 2022 [DVDrip, WEB-DLRip, HDrip] (DUB, MVO) [ 1.46 GB ] Тюрьма суперзлодеев / Корректирующие меры / Corrective Measures [2022 WEB-DLRip] bober100 Скачать
13 | 0
Фильмы (WEB-DL 720p, 1080p) [ 1.63 GB ] Тюрьма суперзлодеев / Корректирующие меры / Corrective Measures [2022 WEB-DL 720p] bober100 Скачать
8 | 0

28-11-2019 20:33  

Отключить всю рекламу на сайте

13-05-2022 06:26 Тюрьма суперзлодеев Скачать торрент  

Такая шняга! pb.wtf



    Дорогой пользователь! Огромная просьба, поблагодарите релизера, оцените раздачу и оставьте свои комментарий, если Вы скачали Тюрьма суперзлодеев через торрент бесплатно!
    Комментировать посты могут только пользователи прошедшие не сложную регистрацию
    Показать сообщения:    

    Тюрьма суперзлодеев через торрент
    Скачать бесплатно Тюрьма суперзлодеев
    Тюрьма суперзлодеев скачать торрент
    Тюрьма суперзлодеев смотреть онлайн
    Cкачать фильм Тюрьма суперзлодеев бесплатно
    Тюрьма суперзлодеев скачать торрент в хорошем качестве
    Тюрьма суперзлодеев смотреть онлайн бесплатно в хорошем качестве


    Вы можете начинать темы
    Вы можете отвечать на сообщения
    Вы не можете редактировать свои сообщения
    Вы не можете удалять свои сообщения
    Вы не можете голосовать в опросах
    Вы не можете прикреплять файлы к сообщениям
    Вы можете скачивать файлы