Всегда рабочее зеркало без VPN и Proxy просто перед .vidak.icu напиши любое слово или цифру, Пример http://4pn4.vidak.icu

MVO

Лицензия

1 сезон

1

1 сезон

iTunes

1 сезон

13

1 сезон

Deluxe

pack

Рекомендуем

Пиратка

30

ВАЖНО

RePack

MK11

RePack

jed

RePack

fifa19

RePack

RDR2

RePack

NEED FOR SPEED™ PAYBACK

Кинопоиск HD

6 сезон

 Острые козырьки 6 сезон

Все сериалы

все сериалы на PB.wtf

RePack

FAR CRY 5
  
Magnet ссылка

Затерянный город / The Lost City (Аарон Ни, Адам Ни) [2022, Комедия, приключения, мелодрама, боевик, WEB-DL 1080p] MVO [Jaskier] pb.wtf

Затерянный город через торрент pb.wtf

Раздают: 9 [ 25 KB/s ]
Размер: 5.83 GB | Добавлен: 1 мес. 22 д. назад | Торрент скачан:698 раз
Смотреть онлайн Затерянный город | Скачать    Ребята, помогите собрать деньги на оплату серверов!!!

10-05-2022 16:58 Затерянный город Скачать торрент  

Затерянный город
The Lost City

Год выпуска: 2022
Страна: США
Студия: 3dot productions, Exhibit A, Fortis Films, Paramount Pictures
Жанр: Комедия, приключения, мелодрама, боевик
Продолжительность: 01:51:45
Перевод: Любительский (многоголосый) | Jaskier
Субтитры: Русские (Full), английские

Режиссер: Аарон Ни, Адам Ни

rating

В ролях: Сандра Баллок, Ченнинг Татум, Дэниэл Рэдклифф, Да Вин Джой Рэндольф, Оскар Нуньес, Патти Харрисон, Брэд Питт, Рэймонд Ли, Томас Форбс-Джонсон, Эктор Анибал

Описание: Лоретта Сейдж пишет популярные любовно-приключенческие романы. События в них непременно разворачиваются в экзотических местах, а главный герой — красавчик и мечта героинь Дэш, которого в жизни воплощает модель Алан. Во время промотура нового бестселлера Лоретту похищает эксцентричный миллиардер, уверенный, что она сможет привести его к сокровищам древнего затерянного города из ее последней книги. Алан решает доказать, что может быть героем в реальной жизни, а не только на страницах книг, и отправляется Лоретте на выручку.

Качество: WEB-DL 1080p
Формат: MKV

Видео: MPEG-4 AVC, 1920x800, 6248 Kbit/s, 23.976 fps
Аудио #01: 48 kHz, AC3, 5.1, 448 Kbps | Профессиональный многоголосый | Jaskier | RUS |
Аудио #02: 48 kHz, E-AC3+Atmos, 5.1, 768 Kbps | Оригинал | ENG |
скриншот  скриншот  скриншот  скриншот  скриншот  

General
Unique ID : 176540296020058433792118361372077366068 (0x84D06C9B9F34C4DB2729961075CC9B34)
Complete name : D:\Video1\The.Lost.City.2022.AMZN.WEB-DL.1080p.seleZen.mkv
Format : Matroska
Format version : Version 4
File size : 5.83 GiB
Duration : 1 h 51 min
Overall bit rate : 7 467 kb/s
Movie name : The Lost City 2022 from seleZen
Encoded date : UTC 2022-05-12 08:32:31
Writing application : mkvmerge v59.0.0 ('Shining Star') 64-bit
Writing library : libebml v1.4.2 + libmatroska v1.6.4

Video
ID : 1
Format : AVC
Format/Info : Advanced Video Codec
Format profile : High@L4
Format settings : CABAC / 4 Ref Frames
Format settings, CABAC : Yes
Format settings, Reference : 4 frames
Codec ID : V_MPEG4/ISO/AVC
Duration : 1 h 51 min
Bit rate mode : Constant
Bit rate : 6 248 kb/s
Nominal bit rate : 10 000 kb/s
Width : 1 920 pixels
Height : 800 pixels
Display aspect ratio : 2.40:1
Frame rate mode : Constant
Frame rate : 23.976 (24000/1001) FPS
Color space : YUV
Chroma subsampling : 4:2:0
Bit depth : 8 bits
Scan type : Progressive
Bits/(Pixel*Frame) : 0.170
Stream size : 4.88 GiB (84%)
Language : English
Default : Yes
Forced : No
Color range : Limited
Color primaries : BT.709
Transfer characteristics : BT.709
Matrix coefficients : BT.709

Audio #1
ID : 2
Format : AC-3
Format/Info : Audio Coding 3
Commercial name : Dolby Digital
Codec ID : A_AC3
Duration : 1 h 51 min
Bit rate mode : Constant
Bit rate : 448 kb/s
Channel(s) : 6 channels
Channel layout : L R C LFE Ls Rs
Sampling rate : 48.0 kHz
Frame rate : 31.250 FPS (1536 SPF)
Compression mode : Lossy
Stream size : 358 MiB (6%)
Title : MVO [Jaskier]
Language : Russian
Service kind : Complete Main
Default : Yes
Forced : Yes

Audio #2
ID : 3
Format : E-AC-3 JOC
Format/Info : Enhanced AC-3 with Joint Object Coding
Commercial name : Dolby Digital Plus with Dolby Atmos
Codec ID : A_EAC3
Duration : 1 h 51 min
Bit rate mode : Constant
Bit rate : 768 kb/s
Channel(s) : 6 channels
Channel layout : L R C LFE Ls Rs
Sampling rate : 48.0 kHz
Frame rate : 31.250 FPS (1536 SPF)
Compression mode : Lossy
Stream size : 614 MiB (10%)
Title : Original
Language : English
Service kind : Complete Main
Default : No
Forced : No
Complexity index : 16
Number of dynamic objects : 15
Bed channel count : 1 channel
Bed channel configuration : LFE

Text #1
ID : 4
Format : UTF-8
Codec ID : S_TEXT/UTF8
Codec ID/Info : UTF-8 Plain Text
Duration : 1 h 45 min
Bit rate : 142 b/s
Count of elements : 1723
Stream size : 110 KiB (0%)
Title : Full
Language : Russian
Default : No
Forced : No

Text #2
ID : 5
Format : UTF-8
Codec ID : S_TEXT/UTF8
Codec ID/Info : UTF-8 Plain Text
Duration : 1 h 45 min
Bit rate : 78 b/s
Count of elements : 1720
Stream size : 60.2 KiB (0%)
Title : Full
Language : English
Default : No
Forced : No

Text #3
ID : 6
Format : UTF-8
Codec ID : S_TEXT/UTF8
Codec ID/Info : UTF-8 Plain Text
Duration : 1 h 45 min
Bit rate : 87 b/s
Count of elements : 1908
Stream size : 67.7 KiB (0%)
Title : SDH
Language : English
Default : No
Forced : No

Menu
00:00:00.000 : Chapter 1
00:11:26.000 : Chapter 2
00:19:31.000 : Chapter 3
00:26:55.000 : Chapter 4
00:33:43.000 : Chapter 5
00:41:29.000 : Chapter 6
00:50:29.000 : Chapter 7
01:02:19.000 : Chapter 8
01:13:31.000 : Chapter 9
01:23:19.000 : Chapter 10
01:34:35.000 : Chapter 11
01:44:52.000 : Chapter 12

pb.wtf



Скачать Затерянный город через торрент https://i.postimg.cc/8CP58Hm2/cover.jpg Скачать, смотреть онлайн Затерянный город бесплантно в хорошем качестве Описание: Лоретта Сейдж пишет популярные любовно-приключенческие романы. События в них непременно разворачиваются в экзотических местах, а ... 9.6 10 30
Торрент: Зарегистрирован [2022-05-12 09:00] · скачан: 698 раз
Статус: √ проверено
Размер: 5.83 GB
Как cкачать? Как скачать Затерянный город через торрент | UTorrent

% Раздел Тема Автор DL S | L
Фильмы 2022 [DVDrip, WEB-DLRip, HDrip] (DUB, MVO) [ 2.24 GB ] Затерянный город / The Lost City [2022 WEB-DLRip-AVC] MVO [Jaskier] от ExKinoRay Lithuania Скачать
14 | 0
Фильмы 2022 [DVDrip, WEB-DLRip, HDrip] (DUB, MVO) [ 1.68 GB ] Затерянный город / The Lost City [2022 WEB-DLRip-AVC] DUB [SDI Media / IYUNO SDI Group | ] bober100 Скачать
5 | 0
Ultra HD (UHD: 2K, 4K, 8K) — видео сверхвысокой чёткости [ 12.47 GB ] Затерянный город / The Lost City [2022 UHD WEB-DL-HEVC 2160p] DUB [SDI Media / IYUNO SDI Group | ] +2xMVO [Jaskier TVShows] bober100 Скачать
4 | 0
Фильмы (WEB-DL 720p, 1080p) [ 6.58 GB ] Затерянный город / The Lost City [2022 WEB-DL 1080p] DUB [SDI Media / IYUNO SDI Group | ] +2xMVO [Jaskier TVShows] bober100 Скачать
11 | 0
Фильмы 2022 [DVDrip, WEB-DLRip, HDrip] (DUB, MVO) [ 1.46 GB ] Затерянный город / The Lost City [2022 WEB-DLRip] DUB [SDI Media / IYUNO SDI Group | ] bober100 Скачать
8 | 0
Фильмы (HD 720p, 1080p) (48-60 fps) [ 3.6 GB ] Затерянный город / The Lost City [2022 WEB-DLRip 720p / 60 FPS Любительский ] от R.G. HD-Films slaventi-69 Скачать
6 | 0
Фильмы 2022 [DVDrip, WEB-DLRip, HDrip] (DUB, MVO) [ 2.03 GB ] Затерянный город / The Lost City [2022 WEB-DLRip-AVC] MVO [Jaskier] bober100 Скачать
7 | 0


Последний раз редактировалось: bober100 (2022-05-12 09:10), всего редактировалось 4 раз(а)

28-11-2019 20:33  

Отключить всю рекламу на сайте

10-05-2022 18:45 Затерянный город Скачать торрент  

Какое нетривиальное название фильма) Такое вряд ли кто-нибудь придумал бы))pb.wtf



10-05-2022 23:34 Затерянный город Скачать торрент  

ох сандра сандра старушка ты наша пластическаяpb.wtf



11-05-2022 04:53 Затерянный город Скачать торрент  

Роман с камнем на новый лад!Ждём дубляжа)pb.wtf



12-05-2022 12:45 Затерянный город Скачать торрент  

Дубляж вряд ли будет, Paramount пока в нашу страну официально не поставляет фильмы..pb.wtf



    Дорогой пользователь! Огромная просьба, поблагодарите релизера, оцените раздачу и оставьте свои комментарий, если Вы скачали Затерянный город через торрент бесплатно!
    Комментировать посты могут только пользователи прошедшие не сложную регистрацию
    Показать сообщения:    

    Затерянный город через торрент
    Скачать бесплатно Затерянный город
    Затерянный город скачать торрент
    Затерянный город смотреть онлайн
    Cкачать фильм Затерянный город бесплатно
    Затерянный город скачать торрент в хорошем качестве
    Затерянный город смотреть онлайн бесплатно в хорошем качестве


    Вы не можете начинать темы
    Вы не можете отвечать на сообщения
    Вы не можете редактировать свои сообщения
    Вы не можете удалять свои сообщения
    Вы не можете голосовать в опросах
    Вы не можете прикреплять файлы к сообщениям
    Вы можете скачивать файлы