Всегда рабочее зеркало без VPN и Proxy просто перед .vidak.icu напиши любое слово или цифру, Пример http://m4rk.vidak.icu

MVO

Лицензия

1 сезон

1

1 сезон

iTunes

1 сезон

13

1 сезон

Deluxe

pack

Рекомендуем

Repack

30

ВАЖНО

RePack

MK11

RePack

jed

RePack

fifa19

RePack

RDR2

RePack

NEED FOR SPEED™ PAYBACK

Кинопоиск HD

6 сезон

 Острые козырьки 6 сезон

Все сериалы

все сериалы на PB.wtf

RePack

FAR CRY 5
  
Magnet ссылка

Варяг / The Northman (Роберт Эггерс) [2022, Фэнтези, боевик, триллер, драма, приключения, история, UHD WEB-DL-HEVC 2160p] 3xMVO (rus, ukr) [HDRezka Studio, Jaskier, NewComers] pb.wtf

Варяг через торрент pb.wtf

Раздают: 9 [ 163 KB/s ]
Размер: 25.61 GB | Добавлен: 1 мес. 22 д. назад | Торрент скачан:196 раз
Смотреть онлайн Варяг | Скачать    Ребята, помогите собрать деньги на оплату серверов!!!

12-05-2022 09:06 Варяг Скачать торрент  

Варяг
The Northman

Год выпуска: 2022
Страна: США
Выпущено: New Regency Productions, Focus Features, Perfect World Pictures
Жанр: Фэнтези, боевик, триллер, драма, приключения, история
Продолжительность: 02:16:57
Перевод:
#1: Профессиональный (многоголосый) | HDRezka Studio
#2: Профессиональный (многоголосый) | Jaskier
#3: Профессиональный (многоголосый) | NewComers
Субтитры: Русские (forced, full), украинские (Forced) , английские

Режиссер: Роберт Эггерс

rating

В ролях: Александр Скарсгард, Николь Кидман, Клас Банг, Итэн Хоук, Аня Тейлор-Джой, Густав Линд, Эллиотт Роуз, Уиллем Дефо, Фил Мартин, Эльдар Скар

Описание: Фильм основан на саге о Амлете из древнескандинавской хроники, записанной Саксоном Грамматиком. Сюжет рассказывает о том, как викинг Фьолнир убивает своего брата, конунга Хорвендила, и берёт в жёны его супругу Гудрун. Амлет, сын Хорвендила, скрывается и клянётся отомстить убийце отца. Когда Амлет становится старше, он объединяется со славянской ведьмой Ольгой, похищенной викингами, и стремится вернуться домой, чтобы убить Фьолнира.

Качество: UHD WEB-DL-HEVC 2160p
Формат: MKV

Видео: 3840x2160 at 23.976 fps, MPEG-H HEVC HDR, ~ 24300 kbps avg
Аудио #01: 48 kHz, AC3, 5.1, 448 Kbps | Профессиональный многоголосый | HDRezka Studio | RUS |
Аудио #02: 48 kHz, AC3, 5.1, 448 Kbps | Профессиональный многоголосый | Jaskier | RUS |
Аудио #03: 48 kHz, AC3, 5.1, 384 Kbps | Профессиональный многоголосый | NewComers | RUS |
Аудио #04: 48 kHz, AC3, 5.1, 384 Kbps | Профессиональный многоголосый | HDRezka Studio | UKR |
Аудио #05: 48 kHz, E-AC3+Atmos, 5.1, 768 Kbps | Оригинал | ENG |
скриншот  скриншот  скриншот  скриншот  скриншот  

General
Unique ID : 289340340050950952530226493118232612049 (0xD9ACEC291CDEEF8388FA1D3CB65B4CD1)
Complete name : D:Video12The.Northman.2022.WEB-DL.2160p.HDR.seleZen.mkv
Format : Matroska
Format version : Version 4
File size : 25.6 GiB
Duration : 2 h 17 min
Overall bit rate : 26.7 Mb/s
Movie name : The Northman 2022 from seleZen
Encoded date : UTC 2022-05-15 19:49:21
Writing application : mkvmerge v59.0.0 ('Shining Star') 64-bit
Writing library : libebml v1.4.2 + libmatroska v1.6.4

Video
ID : 1
Format : HEVC
Format/Info : High Efficiency Video Coding
Format profile : Main [email protected]@High
HDR format : SMPTE ST 2086, HDR10 compatible
Codec ID : V_MPEGH/ISO/HEVC
Duration : 2 h 17 min
Bit rate : 24.3 Mb/s
Width : 3 840 pixels
Height : 2 160 pixels
Display aspect ratio : 16:9
Frame rate mode : Constant
Frame rate : 23.976 (24000/1001) FPS
Color space : YUV
Chroma subsampling : 4:2:0 (Type 2)
Bit depth : 10 bits
Bits/(Pixel*Frame) : 0.122
Stream size : 23.3 GiB (91%)
Language : English
Default : Yes
Forced : No
Color range : Limited
Color primaries : BT.2020
Transfer characteristics : PQ
Matrix coefficients : BT.2020 non-constant
Mastering display color pri: BT.2020
Mastering display luminance: min: 0.0050 cd/m2, max: 1000 cd/m2
Maximum Content Light Level: 1000 cd/m2
Maximum Frame-Average Light: 81 cd/m2

Audio #1
ID : 2
Format : AC-3
Format/Info : Audio Coding 3
Commercial name : Dolby Digital
Codec ID : A_AC3
Duration : 2 h 17 min
Bit rate mode : Constant
Bit rate : 448 kb/s
Channel(s) : 6 channels
Channel layout : L R C LFE Ls Rs
Sampling rate : 48.0 kHz
Frame rate : 31.250 FPS (1536 SPF)
Compression mode : Lossy
Stream size : 439 MiB (2%)
Title : MVO [HDRezka Studio]
Language : Russian
Service kind : Complete Main
Default : Yes
Forced : Yes

Audio #2
ID : 3
Format : AC-3
Format/Info : Audio Coding 3
Commercial name : Dolby Digital
Codec ID : A_AC3
Duration : 2 h 17 min
Bit rate mode : Constant
Bit rate : 448 kb/s
Channel(s) : 6 channels
Channel layout : L R C LFE Ls Rs
Sampling rate : 48.0 kHz
Frame rate : 31.250 FPS (1536 SPF)
Compression mode : Lossy
Stream size : 439 MiB (2%)
Title : MVO [Jaskier]
Language : Russian
Service kind : Complete Main
Default : No
Forced : No

Audio #3
ID : 4
Format : AC-3
Format/Info : Audio Coding 3
Commercial name : Dolby Digital
Codec ID : A_AC3
Duration : 2 h 17 min
Bit rate mode : Constant
Bit rate : 384 kb/s
Channel(s) : 6 channels
Channel layout : L R C LFE Ls Rs
Sampling rate : 48.0 kHz
Frame rate : 31.250 FPS (1536 SPF)
Compression mode : Lossy
Stream size : 377 MiB (1%)
Title : MVO [NewComers]
Language : Russian
Service kind : Complete Main
Default : No
Forced : No

Audio #4
ID : 5
Format : AC-3
Format/Info : Audio Coding 3
Commercial name : Dolby Digital
Codec ID : A_AC3
Duration : 2 h 17 min
Bit rate mode : Constant
Bit rate : 384 kb/s
Channel(s) : 6 channels
Channel layout : L R C LFE Ls Rs
Sampling rate : 48.0 kHz
Frame rate : 31.250 FPS (1536 SPF)
Compression mode : Lossy
Stream size : 377 MiB (1%)
Title : MVO [HDRezka Studio]
Language : Ukrainian
Service kind : Complete Main
Default : No
Forced : No

Audio #5
ID : 6
Format : E-AC-3 JOC
Format/Info : Enhanced AC-3 with Joint Object Coding
Commercial name : Dolby Digital Plus with Dolby Atmos
Codec ID : A_EAC3
Duration : 2 h 17 min
Bit rate mode : Constant
Bit rate : 768 kb/s
Channel(s) : 6 channels
Channel layout : L R C LFE Ls Rs
Sampling rate : 48.0 kHz
Frame rate : 31.250 FPS (1536 SPF)
Compression mode : Lossy
Stream size : 753 MiB (3%)
Title : Original
Language : English
Service kind : Complete Main
Default : No
Forced : No
Complexity index : 16
Number of dynamic objects : 15
Bed channel count : 1 channel
Bed channel configuration : LFE

Text #1
ID : 7
Format : UTF-8
Codec ID : S_TEXT/UTF8
Codec ID/Info : UTF-8 Plain Text
Duration : 2 h 7 min
Bit rate : 2 b/s
Count of elements : 43
Stream size : 1.99 KiB (0%)
Title : Forced [HDRezka Studio]
Language : Russian
Default : Yes
Forced : Yes

Text #2
ID : 8
Format : UTF-8
Codec ID : S_TEXT/UTF8
Codec ID/Info : UTF-8 Plain Text
Duration : 2 h 0 min
Bit rate : 0 b/s
Count of elements : 8
Stream size : 196 Bytes (0%)
Title : Forced [NewComers]
Language : Russian
Default : No
Forced : No

Text #3
ID : 9
Format : UTF-8
Codec ID : S_TEXT/UTF8
Codec ID/Info : UTF-8 Plain Text
Duration : 2 h 8 min
Bit rate : 52 b/s
Count of elements : 1019
Stream size : 49.2 KiB (0%)
Title : Full [Cool Story Blog]
Language : Russian
Default : No
Forced : No

Text #4
ID : 10
Format : UTF-8
Codec ID : S_TEXT/UTF8
Codec ID/Info : UTF-8 Plain Text
Duration : 2 h 2 min
Bit rate : 2 b/s
Count of elements : 39
Stream size : 1.97 KiB (0%)
Title : Forced [HDRezka Studio]
Language : Ukrainian
Default : No
Forced : No

Text #5
ID : 11
Format : UTF-8
Codec ID : S_TEXT/UTF8
Codec ID/Info : UTF-8 Plain Text
Duration : 1 h 39 min
Bit rate : 1 b/s
Count of elements : 33
Stream size : 1.10 KiB (0%)
Title : Forced
Language : English
Default : No
Forced : No

Text #6
ID : 12
Format : UTF-8
Codec ID : S_TEXT/UTF8
Codec ID/Info : UTF-8 Plain Text
Duration : 2 h 7 min
Bit rate : 26 b/s
Count of elements : 979
Stream size : 25.1 KiB (0%)
Title : Full
Language : English
Default : No
Forced : No

Text #7
ID : 13
Format : UTF-8
Codec ID : S_TEXT/UTF8
Codec ID/Info : UTF-8 Plain Text
Duration : 2 h 7 min
Bit rate : 42 b/s
Count of elements : 1605
Stream size : 39.8 KiB (0%)
Title : SDH
Language : English
Default : No
Forced : No

Menu
00:00:00.000 : Chapter 1
00:08:51.000 : Chapter 2
00:15:45.000 : Chapter 3
00:22:01.000 : Chapter 4
00:30:20.000 : Chapter 5
00:39:40.000 : Chapter 6
00:46:13.000 : Chapter 7
00:51:38.000 : Chapter 8
00:58:08.000 : Chapter 9
01:05:16.000 : Chapter 10
01:11:49.000 : Chapter 11
01:16:43.000 : Chapter 12
01:23:29.000 : Chapter 13
01:27:09.000 : Chapter 14
01:35:35.000 : Chapter 15
01:40:54.000 : Chapter 16
01:46:30.000 : Chapter 17
01:55:36.000 : Chapter 18
02:00:58.000 : Chapter 19
02:08:31.000 : Chapter 20

pb.wtf



Скачать Варяг через торрент https://i117.fastpic.org/big/2022/0514/97/a31f70b514baab21136939e1a4d84897.jpg Скачать, смотреть онлайн Варяг бесплантно в хорошем качестве Описание: Фильм основан на саге о Амлете из древнескандинавской хроники, записанной Саксоном Грамматиком. Сюжет рассказывает о том, как ... 8.7 10 38
Торрент: Зарегистрирован [2022-05-15 20:02] · скачан: 196 раз
Статус: √ проверено
Размер: 25.61 GB
Как cкачать? Как скачать Варяг через торрент | UTorrent

% Раздел Тема Автор DL S | L
T Фильмы (мультфильмы) cо спонсором показа (Новинки AVI/MKV) [ 8.02 GB ] Варяг / The Northman [2022 история WEB-DL 1080p] DUB [звук с TS] bober100 Скачать
5 | 0
Фильмы [HD 720p, 1080p] (Хороший звук DUB, MVO) [ 14.24 GB ] Варяг / The Northman [2022 история BDRip 1080p] 3xMVO [HDRezka Studio Jaskier NewComers] bober100 Скачать
7 | 0
Фильмы [HD 720p, 1080p] (Хороший звук DUB, MVO) [ 8.32 GB ] Варяг / The Northman [2022 история BDRip 720p] 3xMVO [HDRezka Studio Jaskier NewComers] bober100 Скачать
6 | 0
Фильмы 2022 [DVDrip, WEB-DLRip, HDrip] (DUB, MVO) [ 2.18 GB ] Варяг / The Northman [2022 история BDRip] MVO [HDRezka Studio] bober100 Скачать
7 | 0
Фильмы (Blu-ray, BD-Remux, HDDVD) [ 32.87 GB ] Варяг / The Northman [2022 история BD Remux 1080p] 3xMVO [HDRezka Studio Jaskier NewComers] bober100 Скачать
4 | 0
Фильмы 2022 [DVDrip, WEB-DLRip, HDrip] (DUB, MVO) [ 1.46 GB ] Варяг / The Northman [2022 история BDRip] MVO [HDRezka Studio] bober100 Скачать
20 | 0
Фильмы 2022 [DVDrip, WEB-DLRip, HDrip] (DUB, MVO) [ 3.73 GB ] Варяг / The Northman [2022 история HDRip-AVC] MVO [HDRezka Studio] bober100 Скачать
3 | 0


Последний раз редактировалось: bober100 (2022-05-15 20:04), всего редактировалось 5 раз(а)

28-11-2019 20:33  

Отключить всю рекламу на сайте

12-05-2022 09:36 Варяг Скачать торрент  

как фильм? стоит качать?pb.wtf



12-05-2022 13:36 Варяг Скачать торрент  

tamburetko писал(а):

pipl79 писал(а):

как фильм? стоит качать?

будешь с сабами смотреть?

скачал, проверил. перевод есть + оригинальная дорожка, сабов нет.pb.wtf



13-05-2022 06:58 Варяг Скачать торрент  

имдб 7.7! вот что бывает, когда "забыли" паразитов папуасов в кино впихнуть)pb.wtf



13-05-2022 17:50 Варяг Скачать торрент  

Ну, так себе фильм. На любителя. Начало понравилось, а конец не очень понравился. Фильм на разокpb.wtf



16-05-2022 04:35 Варяг Скачать торрент  

Фильм полный шлак!!!!!!!не стоит тратить время!!!!pb.wtf



    Дорогой пользователь! Огромная просьба, поблагодарите релизера, оцените раздачу и оставьте свои комментарий, если Вы скачали Варяг через торрент бесплатно!
    Комментировать посты могут только пользователи прошедшие не сложную регистрацию
    Показать сообщения:    

    Варяг через торрент
    Скачать бесплатно Варяг
    Варяг скачать торрент
    Варяг смотреть онлайн
    Cкачать фильм Варяг бесплатно
    Варяг скачать торрент в хорошем качестве
    Варяг смотреть онлайн бесплатно в хорошем качестве


    Вы не можете начинать темы
    Вы не можете отвечать на сообщения
    Вы не можете редактировать свои сообщения
    Вы не можете удалять свои сообщения
    Вы не можете голосовать в опросах
    Вы не можете прикреплять файлы к сообщениям
    Вы можете скачивать файлы