Всегда рабочее зеркало без VPN и Proxy просто перед .vidak.icu напиши любое слово или цифру, Пример http://4mr7.vidak.icu

MVO

Лицензия

1 сезон

1

1 сезон

iTunes

1 сезон

13

1 сезон

Deluxe

pack

Рекомендуем

Пиратка

30

ВАЖНО

RePack

MK11

RePack

jed

RePack

fifa19

RePack

RDR2

RePack

NEED FOR SPEED™ PAYBACK

Кинопоиск HD

6 сезон

 Острые козырьки 6 сезон

Все сериалы

все сериалы на PB.wtf

RePack

FAR CRY 5
  
Magnet ссылка

Операция «Мясной фарш» / Operation Mincemeat (Джон Мэдден) [2021, Драма, военный, WEB-DL 1080p] MVO [Jaskier] pb.wtf

Операция «Мясной фарш» через торрент pb.wtf

Раздают: 2 [ 0 KB/s ]
Размер: 2.59 GB | Добавлен: 1 мес. 18 д. назад | Торрент скачан:226 раз
Смотреть онлайн Операция «Мясной фарш» | Скачать    Ребята, помогите собрать деньги на оплату серверов!!!

14-05-2022 05:50 Операция «Мясной фарш» Скачать торрент  

Операция «Мясной фарш»
Operation Mincemeat

Год выпуска: 2021
Страна: США, Великобритания
Выпущено: See-Saw Films, Cohen Media GroupArchery Pictures
Жанр: Драма, военный
Продолжительность: 02:07:36
Перевод: Профессиональный (многоголосый) | Jaskier
Субтитры: Aнглийские

Режиссер: Джон Мэдден

rating

В ролях: Руфус Райт, Мэттью Макфэдьен, Руби Бенталл, Шарлотта Хэмблин, Колин Фёрт, Джонни Флинн, Лорни МакФадьен, Пенелопа Уилтон, Марк Гэтисс, Каспар Дженнингс

Описание: Во время Второй мировой войны два офицера разведки используют труп и фальшивые документы, чтобы перехитрить немецкие войска.

Качество: WEB-DL 1080p
Формат: MKV

Видео: MPEG-4 AVC, 1815 Кбит/с, 1920x1080
Аудио #1: AC3, 6 ch, 448 Кбит/с | RUS |
Аудио #2: E-AC3, 6 ch, 640 Кбит/с | ENG |
скриншот  скриншот  скриншот  скриншот  

General
Unique ID : 240595980779390683771212985882452740254 (0xB50119B30AECDBCEB43A72D66ED0C89E)
Complete name : E:TorrentsOperation.Mincemeat.2022.1080p_от New-Team_JNS82.mkv
Format : Matroska
Format version : Version 4
File size : 2.59 GiB
Duration : 2 h 7 min
Overall bit rate mode : Variable
Overall bit rate : 2 905 kb/s
Movie name : Operation.Mincemeat.2022.1080p_от New-Team_JNS82
Encoded date : UTC 2022-05-14 05:28:18
Writing application : mkvmerge v59.0.0 ('Shining Star') 64-bit
Writing library : libebml v1.4.2 + libmatroska v1.6.4

Video
ID : 1
Format : AVC
Format/Info : Advanced Video Codec
Format profile : High@L4
Format settings : CABAC / 4 Ref Frames
Format settings, CABAC : Yes
Format settings, Reference : 4 frames
Codec ID : V_MPEG4/ISO/AVC
Duration : 2 h 7 min
Bit rate mode : Variable
Bit rate : 1 815 kb/s
Maximum bit rate : 20.0 Mb/s
Width : 1 920 pixels
Height : 1 080 pixels
Display aspect ratio : 16:9
Frame rate mode : Constant
Frame rate : 24.000 FPS
Color space : YUV
Chroma subsampling : 4:2:0
Bit depth : 8 bits
Scan type : Progressive
Bits/(Pixel*Frame) : 0.036
Stream size : 1.62 GiB (62%)
Writing library : x264 core 148 r2727 7d026e8
Encoding settings : cabac=1 / ref=4 / deblock=1:0:0 / analyse=0x3:0x111 / me=umh / subme=10 / psy=1 / psy_rd=1.00:0.00 / mixed_ref=1 / me_range=120 / chroma_me=1 / trellis=2 / 8x8dct=1 / cqm=0 / deadzone=21, 11 / fast_pskip=1 / chroma_qp_offset=-2 / threads=8 / lookahead_threads=2 / sliced_threads=0 / nr=0 / decimate=1 / interlaced=0 / bluray_compat=0 / stitchable=1 / constrained_intra=0 / bframes=16 / b_pyramid=2 / b_adapt=2 / b_bias=0 / direct=3 / weightb=1 / open_gop=0 / weightp=2 / keyint=240 / keyint_min=121 / scenecut=0 / intra_refresh=0 / rc_lookahead=240 / rc=crf / mbtree=1 / crf=16.0 / qcomp=0.50 / qpmin=6 / qpmax=51 / qpstep=4 / vbv_maxrate=20000 / vbv_bufsize=25000 / crf_max=0.0 / nal_hrd=vbr / filler=0 / ip_ratio=1.40 / aq=1:0.80
Default : Yes
Forced : No

Audio #1
ID : 2
Format : AC-3
Format/Info : Audio Coding 3
Commercial name : Dolby Digital
Codec ID : A_AC3
Duration : 2 h 7 min
Bit rate mode : Constant
Bit rate : 448 kb/s
Channel(s) : 6 channels
Channel layout : L R C LFE Ls Rs
Sampling rate : 48.0 kHz
Frame rate : 31.250 FPS (1536 SPF)
Compression mode : Lossy
Stream size : 409 MiB (15%)
Title : Jaskier - MVO
Language : Russian
Service kind : Complete Main
Default : Yes
Forced : No

Audio #2
ID : 3
Format : E-AC-3
Format/Info : Enhanced AC-3
Commercial name : Dolby Digital Plus
Codec ID : A_EAC3
Duration : 2 h 7 min
Bit rate mode : Constant
Bit rate : 640 kb/s
Channel(s) : 6 channels
Channel layout : L R C LFE Ls Rs
Sampling rate : 48.0 kHz
Frame rate : 31.250 FPS (1536 SPF)
Compression mode : Lossy
Stream size : 584 MiB (22%)
Language : English
Service kind : Complete Main
Default : No
Forced : No

Text #1
ID : 4
Format : UTF-8
Codec ID : S_TEXT/UTF8
Codec ID/Info : UTF-8 Plain Text
Duration : 16 min 0 s
Bit rate : 24 b/s
Count of elements : 76
Stream size : 2.89 KiB (0%)
Title : Forced
Language : English
Default : No
Forced : No

Text #2
ID : 5
Format : UTF-8
Codec ID : S_TEXT/UTF8
Codec ID/Info : UTF-8 Plain Text
Duration : 1 h 57 min
Bit rate : 81 b/s
Count of elements : 1858
Stream size : 69.8 KiB (0%)
Language : English
Default : No
Forced : No

Text #3
ID : 6
Format : UTF-8
Codec ID : S_TEXT/UTF8
Codec ID/Info : UTF-8 Plain Text
Duration : 1 h 59 min
Bit rate : 85 b/s
Count of elements : 2033
Stream size : 75.2 KiB (0%)
Title : SDH
Language : English
Default : No
Forced : No

Menu
02:03:10.000 : Credits

pb.wtf



Скачать Операция «Мясной фарш» через торрент https://i117.fastpic.org/big/2022/0513/c2/0f70637ef1ae4ab442711033c8eeb9c2.png Скачать, смотреть онлайн Операция «Мясной фарш» бесплантно в хорошем качестве Описание: Во время Второй мировой войны два офицера разведки используют труп и фальшивые документы, чтобы перехитрить немецкие ... 7.4 10 7
Торрент: Зарегистрирован [2022-05-14 05:50] · скачан: 226 раз
Статус: √ проверено
Размер: 2.59 GB
Как cкачать? Как скачать Операция «Мясной фарш» через торрент | UTorrent

% Раздел Тема Автор DL S | L
Фильмы (WEB-DL 720p, 1080p) [ 7.07 GB ] Операция «Мясной фарш» / Operation Mincemeat [2021 военный WEB-DL 1080p] bober100 Скачать
5 | 0
Фильмы 2021 [DVDrip, WEB-DLRip, HDrip] (DUB, MVO) [ 2.17 GB ] Операция «Мясной фарш» / Operation Mincemeat [2021 военный WEB-DLRip] DUB [Кинопоиск HD] bober100 Скачать
3 | 0
Фильмы 2021 [DVDrip, WEB-DLRip, HDrip] (DUB, MVO) [ 2.48 GB ] Операция «Мясной фарш» / Operation Mincemeat [2021 военный WEB-DLRip-AVC] MVO [Jaskier] от ExKinoRay Lithuania Скачать
2 | 0

28-11-2019 20:33  

Отключить всю рекламу на сайте

14-05-2022 15:14 Операция «Мясной фарш» Скачать торрент  

так вроде-ж был фильм с таким сюжетом..кажется ''человек которого не было''..по крайне мере смотрел и помню сюжет..что уже и придумывать не хотим агасьpb.wtf



    Дорогой пользователь! Огромная просьба, поблагодарите релизера, оцените раздачу и оставьте свои комментарий, если Вы скачали Операция «Мясной фарш» через торрент бесплатно!
    Комментировать посты могут только пользователи прошедшие не сложную регистрацию
    Показать сообщения:    

    Операция «Мясной фарш» через торрент
    Скачать бесплатно Операция «Мясной фарш»
    Операция «Мясной фарш» скачать торрент
    Операция «Мясной фарш» смотреть онлайн
    Cкачать фильм Операция «Мясной фарш» бесплатно
    Операция «Мясной фарш» скачать торрент в хорошем качестве
    Операция «Мясной фарш» смотреть онлайн бесплатно в хорошем качестве


    Вы не можете начинать темы
    Вы не можете отвечать на сообщения
    Вы не можете редактировать свои сообщения
    Вы не можете удалять свои сообщения
    Вы не можете голосовать в опросах
    Вы не можете прикреплять файлы к сообщениям
    Вы можете скачивать файлы