Всегда рабочее зеркало без VPN и Proxy просто перед .vidak.icu напиши любое слово или цифру, Пример http://msbu.vidak.icu

MVO

Лицензия

1 сезон

1

1 сезон

iTunes

1 сезон

13

1 сезон

Deluxe

pack

Рекомендуем

Пиратка

30

ВАЖНО

RePack

MK11

RePack

jed

RePack

fifa19

RePack

RDR2

RePack

NEED FOR SPEED™ PAYBACK

Кинопоиск HD

6 сезон

 Острые козырьки 6 сезон

Все сериалы

все сериалы на PB.wtf

RePack

FAR CRY 5

Anonymous, нам критически не хватает 2100 руб. на оплату серверов и переферии за МАЙ, помоги нам пожалуйста, вся надежда только на тебя. В благодарность мы отключим тебе всю рекламу на сайте!

×
  
Magnet ссылка

Тюрьма суперзлодеев / Корректирующие меры / Corrective Measures (Шон Патрик О’Рейли) [2022, Фантастика, боевик, триллер, WEB-DLRip-AVC] DUB [Lucky Production] от ExKinoRay pb.wtf

Тюрьма суперзлодеев через торрент pb.wtf

Раздают: 7 [ 283 KB/s ]
Размер: 1.81 GB | Добавлен: 1 мес. 11 д. назад | Торрент скачан:289 раз
Смотреть онлайн Тюрьма суперзлодеев | Скачать    Ребята, помогите собрать деньги на оплату серверов!!!

14-05-2022 07:12 Тюрьма суперзлодеев Скачать торрент  


Тюрьма суперзлодеев / Корректирующие меры / Corrective Measures
Информация о фильме:
Название: Тюрьма суперзлодеев / Корректирующие меры
Оригинальное название: Corrective Measures
Год выхода: 2022
Жанр: Фантастика, боевик, триллер
Режиссер: Шон Патрик О’Рейли

В ролях: Брюс Уиллис, Майкл Рукер, Томас Кавана, Бреннан Мейя, Кевин Зегерс, Дэн Пэйн, Celia Aloma, Хейли Сэйлс, Катрина Мёльман, Мэтт Андерсон

Описание: Они — худшие из худших. Их девиз: с великой силой приходит великая безответственность. Они суперзлодеи, обладающие нечеловеческими сверхспособностями. И на свете есть лишь одно место, способное их сдержать. Именно здесь, в тюрьме будущего, пересекаются пути преступного гения-телепата, жестокого мстителя, коррумпированного надзирателя и многих других. Кто-то из них затеял опасную игру, и каждому — будь то заключенный или охранник — в ней отведена особая роль.



Страна: США
Студия: Arcana Productions, Arcana Studio, Exchange, The, Tubi TV
Продолжительность: 01:42:42
Перевод: Дублированный - Lucky Production



Информация о файле:
Кодек: AVC
Формат: MKV
Качество: WEB-DLRip-AVC
Видео: MPEG-4 AVC, 1024x428, 25,000 fps, 1880 kbps
Аудио RU: AC3, 6 ch, 48 kHz, 448 kbps
Аудио EN: AC3, 2 ch, 48 kHz, 192 kbps
Субтитры: Английские



x264 info: frame I:1269 Avg QP:13.08 size: 68950
x264 info: frame P:38435 Avg QP:16.36 size: 20016
x264 info: frame B:114345 Avg QP:18.17 size: 5168
General
Unique ID : 222116470184067698655804166376116009772 (0xA71A137BBE0D6D3AE7DA06AAA0D13B2C)
Complete name : D:uTorrentРипы wolf1245Corrective Measures.2022.DUB.Lucky.Production.x264.WEB-DLRip-AVC.[wolf1245.ExKinoRay].mkv
Format : Matroska
Format version : Version 4
File size : 1.81 GiB
Duration : 1 h 42 min
Overall bit rate : 2 522 kb/s
Movie name : Corrective Measures.2022.DUB.Lucky.Production.x264.WEB-DLRip-AVC.[wolf1245.ExKinoRay]
Encoded date : UTC 2022-05-14 06:59:21
Writing application : mkvmerge v67.0.0 ('Under Stars') 64-bit
Writing library : libebml v1.4.2 + libmatroska v1.6.4
Video
ID : 1
Format : AVC
Format/Info : Advanced Video Codec
Format profile : High@L4.1
Format settings : CABAC / 10 Ref Frames
Format settings, CABAC : Yes
Format settings, Reference frames : 10 frames
Codec ID : V_MPEG4/ISO/AVC
Duration : 1 h 42 min
Bit rate : 1 880 kb/s
Width : 1 024 pixels
Height : 428 pixels
Display aspect ratio : 2.40:1
Frame rate mode : Constant
Frame rate : 25.000 FPS
Color space : YUV
Chroma subsampling : 4:2:0
Bit depth : 8 bits
Scan type : Progressive
Bits/(Pixel*Frame) : 0.172
Stream size : 1.35 GiB (75%)
Title : -=[wolf1245.ExKinoRay]=-
Writing library : x264 core 163 r3060 5db6aa6
Encoding settings : cabac=1 / ref=10 / deblock=1:-2:-2 / analyse=0x3:0x133 / me=umh / subme=11 / psy=1 / psy_rd=1.07:0.15 / mixed_ref=1 / me_range=32 / chroma_me=1 / trellis=2 / 8x8dct=1 / cqm=0 / deadzone=22,11 / fast_pskip=1 / chroma_qp_offset=-3 / threads=10 / lookahead_threads=2 / sliced_threads=0 / nr=0 / decimate=0 / interlaced=0 / bluray_compat=0 / constrained_intra=0 / bframes=10 / b_pyramid=2 / b_adapt=2 / b_bias=0 / direct=3 / weightb=1 / open_gop=0 / weightp=2 / keyint=250 / keyint_min=25 / scenecut=40 / intra_refresh=0 / rc_lookahead=60 / rc=2pass / mbtree=0 / bitrate=1880 / ratetol=1.0 / qcomp=0.60 / qpmin=0 / qpmax=69 / qpstep=4 / cplxblur=20.0 / qblur=0.5 / vbv_maxrate=50000 / vbv_bufsize=62500 / nal_hrd=none / filler=0 / ip_ratio=1.40 / pb_ratio=1.30 / aq=2:0.80
Language : English
Default : Yes
Forced : No
Audio #1
ID : 2
Format : AC-3
Format/Info : Audio Coding 3
Commercial name : Dolby Digital
Codec ID : A_AC3
Duration : 1 h 42 min
Bit rate mode : Constant
Bit rate : 448 kb/s
Channel(s) : 6 channels
Channel layout : L R C LFE Ls Rs
Sampling rate : 48.0 kHz
Frame rate : 31.250 FPS (1536 SPF)
Compression mode : Lossy
Stream size : 329 MiB (18%)
Title : DUB | Lucky Production | RUS
Language : Russian
Service kind : Complete Main
Default : Yes
Forced : Yes
Audio #2
ID : 3
Format : AC-3
Format/Info : Audio Coding 3
Commercial name : Dolby Digital
Codec ID : A_AC3
Duration : 1 h 42 min
Bit rate mode : Constant
Bit rate : 192 kb/s
Channel(s) : 2 channels
Channel layout : L R
Sampling rate : 48.0 kHz
Frame rate : 31.250 FPS (1536 SPF)
Compression mode : Lossy
Stream size : 141 MiB (8%)
Title : Original | ENG
Language : English
Service kind : Complete Main
Default : No
Forced : No
Text
ID : 4
Format : UTF-8
Codec ID : S_TEXT/UTF8
Codec ID/Info : UTF-8 Plain Text
Duration : 1 h 39 min
Bit rate : 74 b/s
Count of elements : 2036
Stream size : 53.9 KiB (0%)
Title : SDH
Language : English
Default : No
Forced : No
Релиз от:
Автор релиза:
pb.wtf



Скачать Тюрьма суперзлодеев через торрент http://i117.fastpic.org/big/2022/0514/1c/ad06a2bebc250b753ad7eaa8fd88af1c.jpg Скачать, смотреть онлайн Тюрьма суперзлодеев бесплантно в хорошем качестве Описание: Они — худшие из худших. Их девиз: с великой силой приходит великая безответственность. Они суперзлодеи, обладающие ... 7.8 10 8
Торрент: Зарегистрирован [2022-05-14 07:12] · скачан: 289 раз
Статус: √ проверено
Размер: 1.81 GB
Как cкачать? Как скачать Тюрьма суперзлодеев через торрент | UTorrent

28-11-2019 20:33  

Отключить всю рекламу на сайте

14-05-2022 08:30 Тюрьма суперзлодеев Скачать торрент  

Полная бредятина...pb.wtf



15-05-2022 11:06 Тюрьма суперзлодеев Скачать торрент  

Скучноватый фильм, но снято достаточно качественно. Досмотрел чуть больше половину не осилил. Там чувак из сериала Флэш снимается хорошо играет.pb.wtf



01-06-2022 17:35 Тюрьма суперзлодеев Скачать торрент  

Не пойму, почему Рукер сыграл в таком фильме?!pb.wtf



    Дорогой пользователь! Огромная просьба, поблагодарите релизера, оцените раздачу и оставьте свои комментарий, если Вы скачали Тюрьма суперзлодеев через торрент бесплатно!
    Комментировать посты могут только пользователи прошедшие не сложную регистрацию
    Показать сообщения:    

    Тюрьма суперзлодеев через торрент
    Скачать бесплатно Тюрьма суперзлодеев
    Тюрьма суперзлодеев скачать торрент
    Тюрьма суперзлодеев смотреть онлайн
    Cкачать фильм Тюрьма суперзлодеев бесплатно
    Тюрьма суперзлодеев скачать торрент в хорошем качестве
    Тюрьма суперзлодеев смотреть онлайн бесплатно в хорошем качестве


    Вы можете начинать темы
    Вы можете отвечать на сообщения
    Вы не можете редактировать свои сообщения
    Вы не можете удалять свои сообщения
    Вы не можете голосовать в опросах
    Вы не можете прикреплять файлы к сообщениям
    Вы можете скачивать файлы