Аватар: Путь воды

Лицензия

В те дни

1 сезон

скачать смотреть онлайн John Wick Chapter 4

MVO

Крик 6

Дубляж

13 клиническая

3 сезон

Восстание зловещих мертвецов

Дубляж

Одни из нас

Дубляж

Dead Island 2 Gold

Gold

Deluxe RUS

Deluxe RUS

pack

Рекомендуем

ВАЖНО

ВАЖНО

30

Repack

The Lord of the Rings: Gollum

Лицензия

jed

RePack

nioh2

RePack

RDR2

RePack

NEED FOR SPEED™ PAYBACK

RePack

скачать торрент

Кинопоиск HD

Острые козырьки 6 сезон

6 сезон

FAR CRY 6

RePack

скачать торрент

Лицензия

скачать торрент

MVO

1

1 сезон

скачать торрент

1 сезон

скачать торрент

Лицензия

  

СашаТаня / Сезон: 11 / Серии: 1-40 из 40 ( Александр Потапов) [2022, Комедия, WEBRip 1080p]

СашаТаня через торрент pb.wtf

Раздают: 1 [ 0 KB/s ]
Размер: 29.9 GB | Добавлен: 4 мес. 7 д. назад | Торрент скачан:32 раза
Смотреть онлайн | Скачать | Поддержите нас   

16-05-2022 17:48 СашаТаня Скачать торрент  

СашаТаня
Год выпуска: 2022
Страна: Россия
Производство: Comedy Club Production
Жанр: Комедия
Продолжительность: ~ 00:24:00
Перевод: Не требуется
Субтитры: отсутствуют

Режиссер: Александр Потапов



В ролях: Андрей Гайдулян, Валентина Рубцова, Алексей Климушкин, Елена Бирюкова, Татьяна Орлова, Андрей Лебедев, Ксения Хаирова, Олег Новиков (IV), Сергей Рудзевич, Сергей Мурзин, Андрей Свиридов, Павел Кассинский, Виталий Гогунский, Арарат Кещян, Ёлка, Алексей Гаврилов, Лариса Баранова (II), Алина Кизиярова-Ланина, Екатерина Шукшина, Владимир Епифанцев, Светлана Тимофеева-Летуновская

Описание: В новом сезоне Сильвестру Андреевичу придётся превратиться из типичного олигарха в современного смарт-миллионера, который сортирует мусор и раздаёт еду нуждающимся. А Саша и Таня вынужденно станут частью нового имиджа Сергеева-старшего. При этом у Саши и Тани будет хватать и своих проблем: Саша серьёзно возьмётся за себя и будет часами пропадать в тренажёрном зале, а также в самолётах Москва – Санкт-Петербург, а Таня неожиданно превратится в жену Комарова и узнает много нового о спортивном питании. У Кати появится ухажёр-баскетболист, которого она будет тщательно скрывать, чтобы не волновать Таню. Но всё тайное становится явным, и в итоге это грозит серьёзными изменениями всему семейству. Ведь парень рано или поздно сделает Кате предложение, но что на него ответит Таня?

Качество: WEBRip 1080p
Формат: MKV

Видео: MPEG-4 AVC, 1920x1072, ~ 4500 Кбит/с, 0.087 bit/pixel, 25 Кадр/с
Аудио: 48.0 kHz, AC3 Dolby Digital, 2/0 (L,R) ch, ~ 192 kbps
скриншот  скриншот  скриншот  скриншот  скриншот  скриншот  

Общее
Уникальный идентификатор : 104325232742254335876503010354420390640 (0x4E7C4F189D7B1EE6728274B9E1221AF0)
Полное имя : D:\SashaTanya.S07.2022.WEBRip.1080p\SashaTanya.S07.E01.2022.WEBRip.1080p.mkv
Формат : Matroska
Версия формата : Version 4
Размер файла : 780 Мбайт
Продолжительность : 23 м. 12 с.
Режим общего битрейта : Переменный
Общий поток : 4 701 Кбит/сек
Название фильма : SashaTanya.S07.E01.2022.WEBRip.1080p
Дата кодирования : UTC 2022-05-16 17:33:02
Программа кодирования : mkvmerge v66.0.0 ('Josie') 64-bit
Библиотека кодирования : libebml v1.4.2 + libmatroska v1.6.4
Attachments : poster.jpg

Видео
Идентификатор : 1
Формат : AVC
Формат/Информация : Advanced Video Codec
Профиль формата : [email protected]
Настройки формата : CABAC / 2 Ref Frames
Параметр CABAC формата : Да
Параметр RefFrames формата : 2 кадра
Идентификатор кодека : V_MPEG4/ISO/AVC
Продолжительность : 23 м. 12 с.
Вид битрейта : Переменный
Битрейт : 4 500 Кбит/сек
Ширина : 1 920 пикселей
Высота : 1 072 пикселя
Соотношение сторон : 16:9
Режим частоты кадров : Постоянный
Частота кадров : 25,000 кадров/сек
Цветовое пространство : YUV
Субдискретизация насыщенности : 4:2:0
Битовая глубина : 8 бит
Тип развёртки : Прогрессивная
Бит/(Пиксели*Кадры) : 0.087
Размер потока : 747 Мбайт (96%)
Default : Да
Forced : Нет
Цветовой диапазон : Limited
Основные цвета : BT.709
Характеристики трансфера : BT.709
Коэффициенты матрицы : BT.709

Аудио
Идентификатор : 2
Формат : AC-3
Формат/Информация : Audio Coding 3
Коммерческое название : Dolby Digital
Идентификатор кодека : A_AC3
Продолжительность : 23 м. 12 с.
Вид битрейта : Постоянный
Битрейт : 192 Кбит/сек
Каналы : 2 канала
Channel layout : L R
Частота : 48,0 КГц
Частота кадров : 31,250 кадров/сек (1536 SPF)
Метод сжатия : С потерями
Задержка видео : -120 мс.
Размер потока : 31,9 Мбайт (4%)
Service kind : Complete Main
Default : Да
Forced : Нет

Когда раздача ведётся путём добавления новых серий, при каждом добавлении создётся новый торрент. Чтобы начать докачку новой серии, пользователям необходимо сделать следующее:
(1) остановить скачивание,
(2) удалить старый торрент у себя из клиента (старые серии удалять не надо),
(3) скачать новый торрент и запустить его у себя в клиенте вместо старого, при этом указать клиенту путь в старую папку, куда и должно происходить скачивание новых серий.
Ваш клиент при этом должен произвести хеширование (проверку) старой папки (если не производит сам - помогите ему сделать это), и будет докачивать только те серии, которых у вас ещё нет. Старые серии при этом не удаляются, а продолжают раздаваться!
Eсли вы уже удалили старые серии, то предотвратить повторную закачку старых серий можно, отжав галочку в соответствующих местах при запуске нового торрента. По возможности, желательно не удалять старые серии как можно дольше, чтобы релизер не столько продолжал раздавать старые серии, а смог сконцентрироваться на новых.




Скачать СашаТаня через торрент https://i117.fastpic.org/big/2022/0515/c9/883612739d4553936e40c367fd75ffc9.jpg Скачать, смотреть онлайн СашаТаня бесплатно в хорошем качестве Описание: В новом сезоне Сильвестру Андреевичу придётся превратиться из ичного олигарха в современного смарт-миллионера, который ... 7.2 10 13
Info! Золотая раздача, скачанное не засчитывается.
Торрент: Зарегистрирован [2023-02-02 19:12] · скачан: 32 раз
Статус: √ проверено
Размер: 29.9 GB
Как cкачать? Как скачать СашаТаня через торрент | UTorrent

% Раздел Тема Автор DL S | L
Сериалы ТНТ [ 10.2 GB ] СашаТаня / Сезон: 12 / Серии: 1-20 из 40 | | 720p bober100 Скачать
2 | 2
Сериалы ТНТ [ 15.05 GB ] СашаТаня / Сезон: 12 / Серии: 1-20 из 40 | | 1080p bober100 Скачать
7 | 2
Сериалы ТНТ [ 11.44 GB ] СашаТаня / Сезон: 11 / Серии: 1-40 из 40 | | WEBRip bober100 Скачать
2 | 0
Сериалы ТНТ [ 20.24 GB ] СашаТаня / Сезон: 11 / Серии: 1-40 из 40 | | 720p bober100 Скачать
1 | 0
Сериалы ТНТ [ 11.73 GB ] СашаТаня / Сезон: 11 / Серии: 1-40 из 40 | | SATRip bober100 Скачать
1 | 0
Сериалы ТНТ [ 11.5 GB ] СашаТаня / Сезон: 11 / Серии: 1-40 из 40 | | WEBRip-AVC bober100 Скачать
3 | 0
Сериалы ТНТ [ 5.28 GB ] СашаТаня / Сезон: 11 / Серии: 1-18 из 18 | | WEBRip bober100 Скачать
1 | 0

28-11-2019 20:33  


Отключить вcю реклaмy на сайте, в т.ч. и в плеере онлайн просмотра!

    Дорогой пользователь! Огромная просьба, поблагодарите релизера, оцените раздачу и оставьте свои комментарий, если Вы скачали СашаТаня через торрент бесплатно!!
    Комментировать посты могут только пользователи прошедшие не сложную регистрацию
    Показать сообщения:    


    СашаТаня через торрент
    Скачать бесплатно СашаТаня
    СашаТаня скачать торрент
    СашаТаня смотреть онлайн
    Cкачать фильм СашаТаня бесплатно
    СашаТаня скачать торрент в хорошем качестве
    СашаТаня смотреть онлайн бесплатно в хорошем качестве
    Вы не можете начинать темы
    Вы не можете отвечать на сообщения
    Вы не можете редактировать свои сообщения
    Вы не можете удалять свои сообщения
    Вы не можете голосовать в опросах
    Вы не можете прикреплять файлы к сообщениям
    Вы можете скачивать файлы